День драфта / Draft Day (Айвен Райтман) [2014, драма, спорт, BDRip,1080p] [ENG / EN Sub]

 

Создавать темы 21-Авг-2014 20:03


День драфта / Draft Day
-Год выпуска: 2014
Страна: США
Жанр: драма, спорт
Продолжительность: 01:49:59
Перевод: Отсутствует
Язык: Английский
Субтитры: Английские (Вшитые, отключаемые)-В ролях:
Кевин Костнер, Дженнифер Гарнер, Том Уэллинг, Терри Крюс, Сэм Эллиотт, Розанна Аркетт, Кристофер Казинс, Эллен Бёрстин, Фрэнк Ланджелла, Дэнис Лири, Чедвик Боузман
Режиссёр: Айвен Райтман-Описание:
Главный герой картины — менеджер Cleveland Browns, пытающийся привлечь в свою команду перспективного игрока…-Качество: BDRip 1080p
Формат: MKV
Видео кодек: AVC
Аудио кодек: DTS
Видео: AVC , 8 449 Kbps, 1920 x 800 pixels, 23.976 fps, Bits/(Pixel*Frame) : 0.229
Аудио: DTS , 1 510 Kbps, 6 channels, 48.0 KHz-Сэмпл: Ссылка-

MediaInfo:


Draft Day_1080p.mkv
Format : Matroska
Format version : Version 2
File size : 7.65 GiB
Duration : 1h 49mn
Overall bit rate : 9 957 Kbps
Writing application : mkvmerge v6.6.0 ('The Edge Of The In Between') built on Dec 1 2013 17:55:00
Writing library : libebml v1.3.0 + libmatroska v1.4.1
Video
ID : 1
Format : AVC
Format/Info : Advanced Video Codec
Format profile : [email protected]
Format settings, CABAC : Yes
Format settings, ReFrames : 5 frames
Codec ID : V_MPEG4/ISO/AVC
Duration : 1h 49mn
Bit rate : 8 449 Kbps
Width : 1 920 pixels
Height : 800 pixels
Display aspect ratio : 2.40:1
Frame rate : 23.976 fps
Color space : YUV
Chroma subsampling : 4:2:0
Bit depth : 8 bits
Scan type : Progressive
Bits/(Pixel*Frame) : 0.229
Stream size : 6.34 GiB (83%)
Writing library : x264 core 142 r2453 ea0ca51
Encoding settings : cabac=1 / ref=5 / deblock=1:-3:-3 / analyse=0x3:0x113 / me=umh / subme=8 / psy=1 / psy_rd=1.00:0.00 / mixed_ref=1 / me_range=16 / chroma_me=1 / trellis=1 / 8x8dct=1 / cqm=0 / deadzone=21,11 / fast_pskip=1 / chroma_qp_offset=-2 / threads=18 / lookahead_threads=3 / sliced_threads=0 / nr=0 / decimate=1 / interlaced=0 / bluray_compat=0 / constrained_intra=0 / bframes=3 / b_pyramid=2 / b_adapt=2 / b_bias=0 / direct=3 / weightb=1 / open_gop=0 / weightp=2 / keyint=240 / keyint_min=24 / scenecut=40 / intra_refresh=0 / rc_lookahead=50 / rc=2pass / mbtree=1 / bitrate=8449 / ratetol=1.0 / qcomp=0.60 / qpmin=0 / qpmax=69 / qpstep=4 / cplxblur=20.0 / qblur=0.5 / ip_ratio=1.40 / aq=1:1.00
Language : English
Default : Yes
Forced : No
Audio
ID : 2
Format : DTS
Format/Info : Digital Theater Systems
Codec ID : A_DTS
Duration : 1h 49mn
Bit rate mode : Constant
Bit rate : 1 510 Kbps
Channel(s) : 6 channels
Channel positions : Front: L C R, Side: L R, LFE
Sampling rate : 48.0 KHz
Bit depth : 24 bits
Compression mode : Lossy
Stream size : 1.16 GiB (15%)
Language : English
Default : Yes
Forced : No
Text #1
ID : 3
Format : UTF-8
Codec ID : S_TEXT/UTF8
Codec ID/Info : UTF-8 Plain Text
Language : English
Default : No
Forced : No
Text #2
ID : 4
Format : UTF-8
Codec ID : S_TEXT/UTF8
Codec ID/Info : UTF-8 Plain Text
Title : SDH
Language : English
Default : No
Forced : No
Menu
00:00:00.000 : en:00:00:00.000
00:03:43.473 : en:00:03:43.473
00:13:12.959 : en:00:13:12.959
00:22:27.596 : en:00:22:27.596
00:29:29.810 : en:00:29:29.810
00:36:38.363 : en:00:36:38.363
00:46:23.739 : en:00:46:23.739
00:52:07.332 : en:00:52:07.332
00:59:12.883 : en:00:59:12.883
01:04:34.579 : en:01:04:34.579
01:10:19.340 : en:01:10:19.340
01:17:51.208 : en:01:17:51.208
01:20:28.407 : en:01:20:28.407
01:29:07.842 : en:01:29:07.842
01:36:15.228 : en:01:36:15.228
01:41:19.031 : en:01:41:19.031

Скриншоты:

Яндекс.Метрика
Рейтинг@Mail.ru