[ Сегодня на трекере фрилич! Идет свободное скачивание без начисления Download ]

Сталин: деблокирование Сталинграда Готом (Меняйлов) "Горячий снег" / Сезон: Серии: (Алексей Меняйлов / Aleksey Menyailov) [2013 г., документальный, военный, история, WEB-DL, 576p] [+ Original (Rus)]

 

Создавать темы 19-Авг-2014 03:54

-Сталин: деблокирование Сталинграда Готом (Меняйлов) "Горячий снег"-- Производство: Россия
Жанр: документальный, военный, история
Год выпуска: 2013 г.
Продолжительность: 00:37:33
Перевод: Не требуется
Оригинальный аудиопоток: русский
Режиссер: Алексей Меняйлов / Aleksey Menyailov-Описание: Фашисты возлагали огромные надежды на деблокирующий удар танковой группировки Гота. Удар был силен, и окруженные в Сталинграде немцы уже слышали гул канонады приближающегося Гота. Но Сталин применил военную хитрость, о которой со времен развенчания культа личности, говорить не принято. Но военная хитрость была... Как вы думаете, как была обустроена ловушка в ровной как стол степи?-Качество видео: WEBRip
Контейнер: AVI
Стандарт разрешения: 576p
Видео кодек: H.264
Аудио кодек: MP3
Видео: 720x576, 1500 kbps, 25 fps
Аудио: 160.00 kbps, 2 ch, 44.1 kHz
Cубтитры: отсутствуют

Media Info

Общее
Полное имя : D:\Video\Меняйлов\Ролики\СТАЛИН_ДЕБЛОКИРОВАНИЕ СТАЛИНГРАДА ГОТОМ (МЕНЯЙЛОВ).avi
Формат : AVI
Формат/Информация : Audio Video Interleave
Размер файла : 449 Мбайт
Продолжительность : 37 м.
Режим общего битрейта : Постоянный
Общий поток : 1672 Кбит/сек
Видео
Идентификатор : 0
Формат : AVC
Формат/Информация : Advanced Video Codec
Профиль формата : [email protected]
Параметр CABAC формата : Нет
Параметр ReFrames формата : 1 кадр
Параметр GOP формата : M=1, N=12
Идентификатор кодека : H264
Продолжительность : 37 м.
Вид битрейта : Постоянный
Битрейт : 1500 Кбит/сек
Ширина : 720 пикселей
Высота : 576 пикселей
Соотношение сторон : 16:9
Соотношение сторон в оригинале : 16:9
Частота кадров : 25,000 кадров/сек
Стандарт вещания : PAL
Цветовое пространство : YUV
Субдискретизация насыщенности : 4:2:0
Битовая глубина : 8 бит
Тип развёртки : Прогрессивная
Бит/(Пиксели*Кадры) : 0.145
Размер потока : 403 Мбайт (90%)
Аудио
Идентификатор : 1
Формат : MPEG Audio
Версия формата : Version 1
Профиль формата : Layer 3
Режим : Joint stereo
Расширение режима : MS Stereo
Идентификатор кодека : 55
Идентификатор кодека/Подсказка : MP3
Продолжительность : 37 м.
Вид битрейта : Постоянный
Битрейт : 160 Кбит/сек
Каналы : 2 канала
Частота : 44,1 КГц
Метод сжатия : С потерями
Размер потока : 43,0 Мбайт (10%)
Выравнивание : Соединение по промежуткам
Продолжительность промежутка : 26 мс. (0,65 видеокадр)
Библиотека кодирования : LAME3.98

Скриншоты

Яндекс.Метрика
Рейтинг@Mail.ru