Любовь по рецепту и без / Любовь, секс и химия / Better Living Through Chemistry (Джофф Мур, Дэвид Посаментир / Geoff Moore, David Posamentier) [2014 г., Драма, комедия, HDRip] Dub (Лицензия)

 

Создавать темы 19-Авг-2014 03:52

-Любовь по рецепту и без / Любовь, секс и химия / Better Living Through Chemistry- Производство: США, Mission Films, Occupant Entertainment
Год выпуска: 2014 г.
Жанр: Драма, комедия
Продолжительность: 01:31:43
Мировая премьера: 14 марта 2014
Российская премьера: 17 июля 2014, «Наше Кино»
Дата выхода DVD: 14 августа 2014, «CD Land»
Перевод: Профессиональный (полное дублирование) [Лицензия]-Режиссер: Джофф Мур, Дэвид Посаментир / Geoff Moore, David Posamentier
В ролях: Сэм Рокуэлл, Оливия Уайлд, Мишель Монахэн, Бен Шварц, Кен Ховард, Джейн Фонда, Рэй Лиотта, Норберт Лео Батц, Дженн Харрис, Харрисон Хольцер-Описание: Даг Варни — скромный фармацевт и подкаблучник. Всю жизнь окружающие пользовались его мягким характером и не принимали всерьёз. Но однажды произошла встреча, которая изменила всё. Её зовут Элизабет, она яркая, сексуальная, а ее девиз: «Жить нужно в кайф!». Она открыла глаза Дагу на то, что вся его жизнь сера и уныла, а ключ к успеху лежит у него перед носом. Стоит лишь протянуть руку. С этого момента Дага не узнать. Теперь он уверен в себе, женщины без ума от него в постели, а в спорте ему нет равных. Но увлекшись своей новой жизнью, он заходит слишком далеко, а, как известно, за все в жизни приходится платить.- -Качество видео: HDRip
Контейнер: AVI
Видео кодек: XviD
Аудио кодек: AC3
Видео: 720x304 (2.37:1), 23.976 fps, XviD build 50 ~1814 kbps avg, 0.34 bit/pixel
Аудио: 48 kHz, AC3 Dolby Digital, 3/2 (L,C,R,l,r) + LFE ch, ~448 kbps
Cубтитры: отсутствуют

Media Info

General
Complete name : D:\Lubov.po.retseptu.i.bez.2014.D.HDRip.avi
Format : AVI
Format/Info : Audio Video Interleave
File size : 1.46 GiB
Duration : 1h 31mn
Overall bit rate : 2 272 Kbps
Writing application : VirtualDubMod 1.5.10.3 | www.virtualdub-fr.org || (build 2550/release)
Writing library : VirtualDubMod build 2550/release
Video
ID : 0
Format : MPEG-4 Visual
Format profile : Advanced [email protected]
Format settings, BVOP : 2
Format settings, QPel : No
Format settings, GMC : No warppoints
Format settings, Matrix : Default (MPEG)
Codec ID : XVID
Codec ID/Hint : XviD
Duration : 1h 31mn
Bit rate : 1 814 Kbps
Width : 720 pixels
Height : 304 pixels
Display aspect ratio : 2.35:1
Frame rate : 23.976 fps
Color space : YUV
Chroma subsampling : 4:2:0
Bit depth : 8 bits
Scan type : Progressive
Compression mode : Lossy
Bits/(Pixel*Frame) : 0.346
Stream size : 1.16 GiB (80%)
Writing library : XviD 1.2.1 (UTC 2008-12-04)
Audio
ID : 1
Format : AC-3
Format/Info : Audio Coding 3
Mode extension : CM (complete main)
Format settings, Endianness : Big
Codec ID : 2000
Duration : 1h 31mn
Bit rate mode : Constant
Bit rate : 448 Kbps
Channel(s) : 6 channels
Channel positions : Front: L C R, Side: L R, LFE
Sampling rate : 48.0 KHz
Bit depth : 16 bits
Compression mode : Lossy
Stream size : 294 MiB (20%)
Alignment : Split accross interleaves
Interleave, duration : 42 ms (1.00 video frame)
Interleave, preload duration : 500 ms

Скриншоты

Яндекс.Метрика
Рейтинг@Mail.ru