[ Сегодня на трекере фрилич! Идет свободное скачивание без начисления Download ]

Остаться в живых / LOST / Сезон: 3 / Серии: 1-23 (23) (Джек Бендер / Jack Bender, ...) [2006 г., фантастика, триллер, драма, приключения, детектив, BDRip, 720p] Dub (Первый Канал) + Original (Eng) + Sub (Rus, Eng)

 

Создавать темы 19-Авг-2014 03:35

-Остаться в живых / LOST
«On this island, survival is not a game»
(3 сезон)
-- Производство: США
Жанр: фантастика, триллер, драма, приключения, детектив
Год выпуска: 2006 г.
Продолжительность : 23 х ~00:43:00
Мировая премьера: 22 сентября 2004
Российская премьера: 10 июля 2005
Перевод: Профессиональный (полное дублирование) [Первый Канал]
Оригинальный аудиопоток: английский
Режиссер: Джек Бендер / Jack Bender, Стивен Уильямс / Stephen Williams-В ролях: Эмили Де Равин, Хорхе Гарсиа, Джош Холлоуэй, Дэниэл Дае Ким, Юн-жин Ким, Эванджелин Лилли, Доминик Монахэн, Терри О`Куин, Нэвин Эндрюс, Мэттью Фокс, Харольд Периньо мл., Мэгги Грэйс, Майкл Эмерсон, Малкольм Дэвид Келли, Адеуэйл Акиннуйе-Агбайе, Йен Сомерхалдер, Генри Йен Кусик, Мишель Родригез, Мэдисон, Элизабет Митчел, Синтия Уэтрос-Описание: Авиалайнер совершал полет над Тихим океаном и рухнул на один из его островов. С этой минуты остаться в живых станет целью для 48 уцелевших пассажиров. В экстремальной ситуации человек открывается таким, каким его раньше никто не знал. Кажется, все оказываются в общей беде. Но кто-то паникует, а кто-то обнаруживает в себе качества лидера, чтобы повести оставшихся за собой. Идти вперед — значит выжить. Поддаться общему настроению, допустить сомнения в свою душу — означает погубить не только себя, но и всех остальных. Положение уцелевших усугубляет таинственный остров. Жертвы авиакатастрофы должны победить все опасности, которыми это местечко в Тихом океане пытается их погубить. Остров расставляет для спутников опасные ловушки, тот кто не может справиться — погибает.
- -Качество видео: BDRip
Контейнер: MKV
Стандарт разрешения: 720p
Видео кодек: H.264/AVC
Аудио кодек: AC3
Видео: 1280х720, 23.976 fps, ~5500 - 7500 kbps avg
Аудио: (Rus) AC3, 2 ch (Front: L R), 48 kHz, ~192 kbps avg - (Дубляж, Первый канал)
Аудио #2: (Eng) AC3, 6 ch (Front: L C R, Side: L R, LFE), 48 kHz, ~640 kbps
Cубтитры: Русские (корейские диалоги, надписи ); Русские (Полные); Английские (Полные)

Список эпизодов

01: A Tale of Two Cities / Повесть О Двух Городах
02: The Glass Ballerina / Стеклянная Балерина
03: Further Instructions / Дальнейшие Указания
04: Every Man for Himself / Каждый Сам За Себя
05: The Cost of Living / Цена Жизни
06: I Do / Я Согласна
07: Not in Portland / Не В Портленде
08: Flashes Before Your Eyes / Вспышки Перед Глазами
09: Stranger in a Strange Land / Чужак В Чужой Стране
10: Tricia Tanaka Is Dead / Триша Танака Мертва
11: Enter 77 / Введите 77
12: Par Avion / Авиапочтой
13: The Man from Tallahassee / Человек Из Таллахасси
14: Exposé / Разоблачение
15: Left Behind / Брошенные
16: One of Us / Одна Из Нас
17: Catch-22 / Уловка 22
18: D.O.C. / День Зачатия
19: The Brig / Вахта
20: The Man Behind the Curtain / Человек За Ширмой
21: Greatest Hits / Избранное
22-23: Through the Looking Glass / В Зазеркалье

Media Info

General
Complete name                    : D:\Uploads\Pirat.Ca\LOST - Season 03 (2006)[720p.BDRip]\Lost.S03E01.720p.BluRay.Rus.Eng.mkv
Format                           : Matroska
File size                        : 1.97 GiB
Duration                         : 43mn 18s
Overall bit rate                 : 6 520 Kbps
Movie name                       : Season 3, Episode 1: A Tale of Two Cities
Encoded date                     : UTC 2014-08-06 15:35:07
Writing application              : mkvmerge v6.0.0 ('Coming Up For Air') built on Jan 20 2013 09:52:00
Writing library                  : libebml v1.3.0 + libmatroska v1.4.0
Video
ID                               : 1
Format                           : AVC
Format/Info                      : Advanced Video Codec
Format profile                   : [email protected]
Format settings, CABAC           : Yes
Format settings, ReFrames        : 8 frames
Format settings, GOP             : M=4, N=24
Muxing mode                      : Container [email protected]
Codec ID                         : V_MPEG4/ISO/AVC
Duration                         : 43mn 18s
Bit rate                         : 5 685 Kbps
Width                            : 1 280 pixels
Height                           : 720 pixels
Display aspect ratio             : 16:9
Frame rate                       : 23.976 fps
Color space                      : YUV
Chroma subsampling               : 4:2:0
Bit depth                        : 8 bits
Scan type                        : Progressive
Bits/(Pixel*Frame)               : 0.257
Stream size                      : 1.68 GiB (85%)
Writing library                  : x264 core 57 svn-709C
Encoding settings                : cabac=1 / ref=5 / deblock=1:-3:-3 / analyse=0x3:0x133 / me=umh / fpel_cmp=sad / subme=6 / me-prepass=1 / brdo=1 / mixed_ref=1 / me_range=16 / chroma_me=1 / trellis=0 / 8x8dct=1 / cqm=2 / deadzone=21,11 / chroma_qp_offset=0 / threads=6 / nr=0 / decimate=1 / mbaff=0 / bframes=3 / b_pyramid=1 / b_adapt=1 / b_bias=0 / direct=1 / wpredb=1 / bime=1 / keyint=250 / keyint_min=25 / scenecut=40(pre) / rc=2pass / bitrate=5685 / ratetol=1.0 / rceq='blurCplx^(1-qComp)' / qcomp=0.60 / qpmin=10 / qpmax=51 / qpstep=4 / cplxblur=20.0 / qblur=0.5 / ip_ratio=1.40 / pb_ratio=1.30 / aq=1:0.7:15.0
Language                         : English
Audio #1
ID                               : 2
Format                           : AC-3
Format/Info                      : Audio Coding 3
Mode extension                   : CM (complete main)
Codec ID                         : A_AC3
Duration                         : 43mn 18s
Bit rate mode                    : Constant
Bit rate                         : 192 Kbps
Channel(s)                       : 2 channels
Channel positions                : Front: L R
Sampling rate                    : 48.0 KHz
Bit depth                        : 16 bits
Stream size                      : 59.5 MiB (3%)
Title                            : 1TV
Language                         : Russian
Audio #2
ID                               : 3
Format                           : AC-3
Format/Info                      : Audio Coding 3
Mode extension                   : CM (complete main)
Codec ID                         : A_AC3
Duration                         : 43mn 18s
Bit rate mode                    : Constant
Bit rate                         : 640 Kbps
Channel(s)                       : 6 channels
Channel positions                : Front: L C R, Side: L R, LFE
Sampling rate                    : 48.0 KHz
Bit depth                        : 16 bits
Stream size                      : 198 MiB (10%)
Language                         : English
Text #1
ID                               : 4
Format                           : UTF-8
Codec ID                         : S_TEXT/UTF8
Codec ID/Info                    : UTF-8 Plain Text
Language                         : Russian
Text #2
ID                               : 5
Format                           : UTF-8
Codec ID                         : S_TEXT/UTF8
Codec ID/Info                    : UTF-8 Plain Text
Language                         : English
Menu
00:00:00.000                     : en:Chapter 1
00:04:41.489                     : en:Chapter 2
00:10:43.225                     : en:Chapter 3
00:17:43.479                     : en:Chapter 4
00:25:21.019                     : en:Chapter 5
00:32:30.406                     : en:Chapter 6
00:42:36.095                     : en:Chapter 7

Скриншоты

Яндекс.Метрика
Рейтинг@Mail.ru