[ Сегодня на трекере фрилич! Идет свободное скачивание без начисления Download ]

Убийство / The Killing (Сезон 4, Серии: 3 из 6) (Эдвард Бьянчи / Edward Bianchi, ...) (2014 г., триллер, драма, криминал, детектив, ..., WEBRip) MVO (LostFilm) [обновляемая]

 

Создавать темы 19-Авг-2014 03:17

Убийство / The Killing«Who Killed Rosie Larsen?»- Русское название: Убийство
Оригинальное название: The Killing
Страна: США, Канада
Год выпуска: 2014
Жанр: триллер, драма, криминал, детектив, ...-Премьера (мир): 3 апреля 2011, ...
Премьера (РФ): 21 января 2014-Озвучка: Студия
Перевод: Профессиональный (многоголосый закадровый)-Режиссер: Эдвард Бьянчи / Edward Bianchi, Николь Кэссел / Nicole Kassell, Фил Абрахам / Phil Abraham, ...
В главных ролях: Мирей Инос, Юэль Киннаман, Элиас Котеас, Питер Сарсгаард, Грегг Генри, Билл Кэмпбелл, Брент Секстон, Мишель Форбс, Кристин Леман, Эрик Ладин, ...-Описание фильма:
«Кто убил Рози Ларсен?» – эта тайна, скрываемая нескончаемыми дождями Сиэтла, связала воедино жизни героев сериала, - семью юной Рози, детективов, расследующих убийство, подозреваемых. И у каждого из них есть свои секреты, готовые в любое мгновенье всплыть на поверхность, обличив своего владельца перед обществом и, возможно, уничтожив его…-Сезон: 4
Серии: 3 из 6 серий
Продолжительность: ~ 00:59:00 мин серия-Качество видео: WEBRip
Контейнер: AVI
Видео кодек: XviD
Аудио кодек: Mp3
Видео: MPEG-4 Visual at 862 Кбит/сек: 720 x 400 (1.800) at 29.970 fps: 0.10 Бит/Пиксели
Аудио: MPEG Audio at 192 Кбит/сек: 2 канала, 48,0 КГц |LostFilm|
Cубтитры: отсутствуют
- -

Список серий:

  • Кровь в воде (Blood in the Water)
  • Разлад (Unraveling)
  • Хороший солдат (The Good Soldier)
-

MediaInfo:

Общее
Полное имя                               : E:\_Сериалы\Убийство\The Killing.s04.LostFilm\The.Killing.S04E01.rus.LostFilm.TV.avi
Формат                                   : AVI
Формат/Информация                        : Audio Video Interleave
Размер файла                             : 450 Мбайт
Продолжительность                        : 59 м.
Режим общего битрейта                    : Переменный
Общий поток                              : 1063 Кбит/сек
Программа кодирования                    : Nandub v1.0rc2
Библиотека кодирования                   : Nandub build 1853/release
Видео
Идентификатор                            : 0
Формат                                   : MPEG-4 Visual
Профиль формата                          : Advanced [email protected]
Параметр BVOP формата                    : Нет
Параметр QPel формата                    : Нет
Параметр GMC формата                     : Без точки перехода
Параметр матрицы формата                 : Default (H.263)
Идентификатор кодека                     : XVID
Идентификатор кодека/Подсказка           : XviD
Продолжительность                        : 59 м.
Битрейт                                  : 862 Кбит/сек
Ширина                                   : 720 пикселей
Высота                                   : 400 пикселей
Соотношение сторон                       : 16:9
Частота кадров                           : 29,970 кадров/сек
Цветовое пространство                    : YUV
Субдискретизация насыщенности            : 4:2:0
Битовая глубина                          : 8 бит
Тип развёртки                            : Прогрессивная
Метод сжатия                             : С потерями
Бит/(Пиксели*Кадры)                      : 0.100
Размер потока                            : 365 Мбайт (81%)
Библиотека кодирования                   : XviD 1.2.1 (UTC 2008-12-04)
Аудио
Идентификатор                            : 1
Формат                                   : MPEG Audio
Версия формата                           : Version 1
Профиль формата                          : Layer 3
Режим                                    : Joint stereo
Расширение режима                        : MS Stereo
Идентификатор кодека                     : 55
Идентификатор кодека/Подсказка           : MP3
Продолжительность                        : 59 м.
Вид битрейта                             : Переменный
Битрейт                                  : 192 Кбит/сек
Каналы                                   : 2 канала
Частота                                  : 48,0 КГц
Метод сжатия                             : С потерями
Размер потока                            : 79,5 Мбайт (18%)
Выравнивание                             : Соединение по промежуткам
Продолжительность промежутка             : 24  мс. (0,72 видеокадр)
Время предзагрузки промежутка            : 486  мс.
Библиотека кодирования                   : LAME3.97b
Настройки программы                      : -m j -V 4 -q 3 -lowpass 18.6 --abr 192
-

Скриншот c названием фильма

-Скриншоты:
-

Еще

-

Внимание! Раздача ведётся путём добавления новых серий!

Раздача ведётся путём добавления новых серий; при каждом добавлении создётся новый торрент.
Чтобы начать докачку новой серии, пользователям необходимо сделать следующее:
1. остановить скачивание,
2. удалить старый торрент у себя из клиента (старые серии удалять не надо),
3. скачать новый торрент и запустить его у себя в клиенте вместо старого, при этом указать клиенту путь в старую папку, куда и должно происходить скачивание новых серий.
Ваш клиент при этом должен произвести хеширование (проверку) старой папки (если не производит сам - помогите ему сделать это), и будет докачивать только те серии которых у вас ещё нет. Старые серии при этом не удаляются, а продолжают раздаваться!
Eсли вы уже удалили старые серии, то предотвратить повторную закачку старых серий можно, отжав галочку в соответсвующих местах при запуске нового торрента. По возможности, желательно не удалять старые серии как можно дольше, чтобы релизёр не столько продолжал раздавать старые серии, а смог сконцентрироваться на новых.
Совет для тех, кто не хочет ждать перехеширования:
Создайте ещё одну папку рядом с папкой сериала (рядом, а не в ней!!!). Каждую новую серию после удачной загрузки копируйте в новую папку так чтобы ваша основная папка всегда была пуста. Когда ваш новый торрент предложит вам закачать все файлы, выберете только последнюю. Для сидирования же укажите адрес новой папки.
Как закачать отдельный файл из торрента или докачать ранее пропущенные файлы торрента!
-

Как закачать отдельный файл

1. Открыть торрент
2. Снять галки с тех файлов торрента, которые мы не хотим закачивать. Оставляем только на нужных нам файлах (файле).
3. Нажать О.К.
В клиенте utorrent
Инструкция
1) Открыть торрент

2) Снять галки с тех файлов торрента, которые мы не хотим закачивать:
* либо вручную, снимая с каждого файла галку( скрин №1)
* либо, нажав кнопку "Снять метки (Select None)", сняв сразу со всех файлов(скрин №2)
№1

№2

Оставляем только на нужных нам файлах (файле).

3)Нажать О.К
-Добавлена третья серия четвертого сезона
Яндекс.Метрика
Рейтинг@Mail.ru