[ Сегодня на трекере фрилич! Идет свободное скачивание без начисления Download ]

Аватар: Легенда о Корре / The Legend of Korra (1 и 2 сезон полные: 26 серий) (3 сезон: 11 серий) (Книга 1-3) (Michael Dante DiMartino / Майкл Данте ДиМартино) [2012-2014 г., мультсериал, приключения, фэнтези, WEB-DLRip] DVO (SkyeFilmTV) (Flux-Team)

 

Создавать темы 19-Авг-2014 03:04

-Аватар: Легенда о Корре / The Legend of Korra-(1 и 2 сезон: 26 серии из 26, 3 сезон 11 серий из 12) (Книга 1-3)- Год выпуска: 2012-2014
Производство: США
Жанр: мультсериал, приключения, семейный, фэнтези
Продолжительность: ~ 24 мин
Перевод сезон 1 и 2, сезон 3 серии 1-3: Любительский (двухголосый, закадровый) [SkyeFilmTV]
Перевод сезон 3 серии 4-11: Любительский (двухголосый, закадровый) [Flux-Team]
Оригинальный аудиопоток: английский
Режиссер: Майкл Данте ДиМартино / Michael Dante DiMartino, Брайан Кониецко / Bryan Konietzko
Описание
Действие сериала разворачивается примерно через 70 лет после победы аватара Аанга над Лордом Огня в последней серии мультсериала «Аватар: Легенда об Аанге». Корра, уже овладевшая магией воды, земли и огня должна обучиться последнему элементу — магии воздуха. В этом ей может помочь только сын Аанга и Катары — Тензин. Корра живёт в «Республиканском городе». Республиканский город — это место, где вместе живут люди всех наций. Героям мультсериала предстоит борьба с преступностью и с готовящимся восстанием против магов.

Список серий:

Сезон 1

01 - Добро пожаловать в город Республика
02 - Лист на ветру
03 - Откровения
04 - Голос в ночи
05 - Дух соперничества
06 - И победителем становится…
07 - Последствия
08 - Когда крайности сходятся
09 - Из прошлого
10 - Изменить ход событий
11 - Скелеты в шкафу
12 - Конец игры

Сезон 2

13 - Бунтарский Дух
14 - Южное сияние
15 - Гражданские войны. Часть 1
16 - Гражданские войны. Часть 2
17 - Миротворцы
18 - Операция "Жало"
19 - Истоки. Часть 1
20 - Истоки. Часть 2
21 - Проводник
22 - Новый духовный век
23 - Ночь из тысячи звезд
24 - Гармоническое сближение
25 - Тьма надвигается
26 - Свет во Тьме

Сезон 3

01 - Глоток свежего воздуха
02 - Перерождение
03 - Королева Земли
04 - В опасности
05 - Клан Металла
06 - Старые раны
07 - Истинные маги воздуха
08 - Ужас внутри
09 - Надзор
10 - Да здравствует Королева!
11 - Ультиматум
Источник/Качество: WEB-DLRip
Формат: AVI
Видео кодек: XviD
Аудио кодек: AC3
Видео: 720x400 29,97 fps 1346 kbps avg 0.16 bit/pixel
Аудио #1: 48000 Hz 2 ch 192 kbps avg Rus
Аудио #2: 48000 Hz 2 ch 192 kbps avg Eng

Media Info

Общее
Формат : AVI
Формат/Информация : Audio Video Interleave
Размер файла : 301 Мбайт
Продолжительность : 24 м.
Общий поток : 1748 Кбит/сек
Программа кодирования : VirtualDubMod 1.5.10.2 (build 2540/release)
Библиотека кодирования : VirtualDubMod build 2540/release
Видео
Идентификатор : 0
Формат : MPEG-4 Visual
Профиль формата : Advanced [email protected]
Параметр BVOP формата : 1
Параметр QPel формата : Нет
Параметр GMC формата : Без точки перехода
Параметр матрицы формата : Default (MPEG)
Идентификатор кодека : XVID
Идентификатор кодека/Подсказка : XviD
Продолжительность : 24 м.
Битрейт : 1346 Кбит/сек
Ширина : 720 пикселей
Высота : 400 пикселей
Соотношение сторон : 16:9
Частота кадров : 29,970 кадров/сек
Цветовое пространство : YUV
Субдискретизация насыщенности : 4:2:0
Битовая глубина : 8 бит
Тип развёртки : Прогрессивная
Метод сжатия : С потерями
Бит/(Пиксели*Кадры) : 0.156
Размер потока : 232 Мбайт (77%)
Библиотека кодирования : XviD 1.2.1 (UTC 2008-12-04)
Аудио #1
Идентификатор : 1
Формат : AC-3
Формат/Информация : Audio Coding 3
Расширение режима : CM (complete main)
Идентификатор кодека : 2000
Продолжительность : 24 м.
Вид битрейта : Постоянный
Битрейт : 192 Кбит/сек
Каналы : 2 канала
Расположение каналов : Front: L R
Частота : 48,0 КГц
Битовая глубина : 16 бит
Метод сжатия : С потерями
Размер потока : 33,1 Мбайт (11%)
Выравнивание : Разделение по промежуткам
Продолжительность промежутка : 33 мс. (1,00 видеокадр)
Время предзагрузки промежутка : 500 мс.
Аудио #2
Идентификатор : 2
Формат : AC-3
Формат/Информация : Audio Coding 3
Расширение режима : CM (complete main)
Идентификатор кодека : 2000
Продолжительность : 24 м.
Вид битрейта : Постоянный
Битрейт : 192 Кбит/сек
Каналы : 2 канала
Расположение каналов : Front: L R
Частота : 48,0 КГц
Битовая глубина : 16 бит
Метод сжатия : С потерями
Размер потока : 33,1 Мбайт (11%)
Выравнивание : Разделение по промежуткам
Продолжительность промежутка : 33 мс. (1,00 видеокадр)
Время предзагрузки промежутка : 500 мс.

Скриншоты




Внимание ! Раздача ведётся путём добавления новых файлов

Внимание! Раздача ведётся путём добавления новых файлов; при каждом добавлении создётся новый торрент. Чтобы начать докачку нового файла, пользователям необходимо сделать следующее:
(1) остановить скачивание,
(2) удалить старый торрент у себя из клиента (старые файлы удалять не надо),
(3) скачать новый торрент и запустить его у себя в клиенте вместо старого, при этом указать клиенту путь в старую папку куда и должно происходить скачивание новых файлов.
Ваш клиент при этом должен произвести хеширование (проверку) старой папки (если не производит сам - помогите ему сделать это), и будет докачивать только те файлы которых у вас ещё нет. Старые файлы при этом не удаляются, а продолжают раздаваться!
Добавлена 11 серия 3 сезона
Яндекс.Метрика
Рейтинг@Mail.ru