Настоящая Кровь / True Blood / Сезон: 2 / Серии: 1-12 (Майкл Леманн / Michael Lehmann, ...) [2009 г., фэнтези, триллер, драма, мелодрама, детектив, BDRip] DVO [Sub (Eng)]

 

Создавать темы 19-Авг-2014 02:56

-Настоящая Кровь / True Blood-- Производство: Home Box Office (HBO), Your Face Goes Here Entertainment
Жанр: фэнтези, триллер, драма, мелодрама, детектив
Год выпуска: 2009 г.
Продолжительность: 0:57:55
Перевод: Профессиональный (двухголосый, закадровый)
Перевод 2: Отсутствует
Режиссер: Майкл Леманн / Michael Lehmann, Скотт Уинант / Scott Winant, Даниэль Минахан / Daniel Minahanс-В ролях: Анна Пакуин, Стивен Мойер, Сэм Трэммелл, Райан Квонтен, Рутина Уэсли, Кэрри Престон.-Описание: События разворачиваются в небольшом городке в пригороде Нового Орлеана. С тех пор, как японцы изобрели синтетическую кровь «True Blood», у вампиров отпала необходимость убивать простых смертных. Два года назад вампиры покинули свои гробы и официально заявили о своих правах. Но как водится, не все люди оказались готовы к этому, и не все вампиры были рады отказаться от привычного лакомства. Соки Стэкхауз — обычная официантка из пригородного кафе, наделенная способностью читать мысли окружающих, знакомится с «хорошим» вампиром Биллом Комтоном. И сразу приобретает много врагов из «плохих парней».-
Качество видео: BDRip
Контейнер: AVI
Видео кодек: XviD
Аудио кодек: AC3
Видео: 720x400, 1951 kbps avg, 23.976 fps, 0.283 Бит/Пиксели
Аудио: 192 kbps, 2/0 (L,R) ch, 48 kHz
Cубтитры: английские
Формат субтитров: softsub (SRT)

Media Info

Общее
Полное имя : D:\Video\Сериалы\Настоящая кровь- True Blood\S02E01-12\Nastoyashaya.krov.S02E01.2009.RUS.BDRip.XviD.AC3.-HELLYWOOD.avi
Формат : AVI
Формат/Информация : Audio Video Interleave
Размер файла : 892 Мбайт
Продолжительность : 57 м.
Общий поток : 2153 Кбит/сек
Название фильма : Настоящая кровь (Сезон 2) / True Blood (Season 2) (2009) BDRip от HELLYWOOD
Режиссёр : Serval
Программа кодирования : VirtualDubMod 1.5.10.2 (build 2542/release)
Примечание : BD-Remux 1080p
Видео
Идентификатор : 0
Формат : MPEG-4 Visual
Профиль формата : Advanced [email protected]
Параметр BVOP формата : 1
Параметр QPel формата : Нет
Параметр GMC формата : Без точки перехода
Параметр матрицы формата : Выборочная
Идентификатор кодека : XVID
Идентификатор кодека/Подсказка : XviD
Продолжительность : 57 м.
Битрейт : 1952 Кбит/сек
Ширина : 720 пикселей
Высота : 400 пикселей
Соотношение сторон : 16:9
Частота кадров : 23,976 кадра/сек
Цветовое пространство : YUV
Субдискретизация насыщенности : 4:2:0
Битовая глубина : 8 бит
Тип развёртки : Прогрессивная
Метод сжатия : С потерями
Бит/(Пиксели*Кадры) : 0.283
Размер потока : 809 Мбайт (91%)
Библиотека кодирования : XviD 64
Аудио
Идентификатор : 1
Формат : AC-3
Формат/Информация : Audio Coding 3
Расширение режима : CM (complete main)
Параметр Endianness формата : Big
Идентификатор кодека : 2000
Продолжительность : 57 м.
Вид битрейта : Постоянный
Битрейт : 192 Кбит/сек
Каналы : 2 канала
Расположение каналов : Front: L R
Частота : 48,0 КГц
Битовая глубина : 16 бит
Метод сжатия : С потерями
Размер потока : 79,5 Мбайт (9%)
Выравнивание : Разделение по промежуткам
Продолжительность промежутка : 42 мс. (1,00 видеокадр)
Время предзагрузки промежутка : 500 мс.

Скриншоты

Яндекс.Метрика
Рейтинг@Mail.ru