[ Сегодня на трекере фрилич! Идет свободное скачивание без начисления Download ]

Вся роскошь азиатских стран / Paradise Asia / 20 серий из 23 (Санджай Реви / Sanjay Revee, Роуз Шивам / Rose Sivam, ...) [2008-2009 г., документальный, путешествия, HDTVRip, 1080p] VO [обновляемая]

 

Создавать темы 19-Авг-2014 02:42

-Вся роскошь азиатских стран / Paradise Asia- Год выпуска: 2008-2009 г.
Производство: Сингапур , Extreme Production
Жанр: документальный, путешествия
Продолжительность: 20x ~ 00:22:00
Перевод: Профессиональный (одноголосый, закадровый)
Режиссёры: Санджай Реви / Sanjay Revee, Роуз Шивам / Rose Sivam, ...-Описание: Загадочная, прекрасная, удивительная Азия! Манящая экзотика этого региона позволяет ему оставаться приоритетным направлением для многих тысяч туристов, которые устремляются туда в поисках гармонии души и тела.
В этих сериях лучшие места для отдыха в Индии, Индонезии, Китае, Таиланде, Малайзии, Камбодже, Шри-Ланке, Непале и других райских уголках азиатского мира. Разносторонний подход к подаче материала и радующие глаз изысканные кадры непременно завладеют вниманием широкого круга зрителей.
-Качество видео: HDTVRip (1080p)
Контейнер: MKV
Видео кодек: AVC
Аудио кодек: AC3
Видео: 1920x1080, ~ 6000 kbps avg, 25 fps
Аудио: 192 kbps, 2 ch, 48.0 kHz
Cубтитры: отсутствуют

Содержание

1. Бали
2. Лангкави
3. Мальдивы
4. Вьетнам
5. Раджастан
6. Джимбаран, Бали
7. Пангкор, Малайзия
8. Ангкор-Ват, Камбоджа
9. Джайпур, Индия
10. Рантамбор, Индия
12. Пекин, Китай
13. Пхукет, Таиланд
14. Краби, Тайланд
15. Ко Самуи, Тайланд
16. Золотой треугольник, Тайланд
17. Шри-Ланка
18. Камбоджа
19. Барос, Мальдивы
20. Ландаа Гираавару, Мальдивы
21. Непал

Media Info

Общее
Уникальный идентификатор : 210915519291818298362709813173586337506 (0x9EACD9F7944A2F94915C2FFFD8299EE2)
Полное имя : Вся роскошь.E01.Бали.2008.HDTVRip.(1080p).mkv
Формат : Matroska
Версия формата : Version 2
Размер файла : 977 Мбайт
Продолжительность : 22 м.
Общий поток : 6192 Кбит/сек
Дата кодирования : UTC 2014-06-10 07:34:44
Программа кодирования : mkvmerge v6.1.0 ('Old Devil') built on Mar 4 2013 09:10:42
Библиотека кодирования : libebml v1.3.0 + libmatroska v1.4.0
Видео
Идентификатор : 1
Формат : AVC
Формат/Информация : Advanced Video Codec
Профиль формата : [email protected]
Параметр CABAC формата : Да
Параметр ReFrames формата : 4 кадра
Идентификатор кодека : V_MPEG4/ISO/AVC
Продолжительность : 22 м.
Битрейт : 6000 Кбит/сек
Ширина : 1920 пикселей
Высота : 1080 пикселей
Соотношение сторон : 16:9
Режим частоты кадров : Постоянный
Частота кадров : 25,000 кадров/сек
Цветовое пространство : YUV
Субдискретизация насыщенности : 4:2:0
Битовая глубина : 8 бит
Тип развёртки : Прогрессивная
Бит/(Пиксели*Кадры) : 0.116
Размер потока : 927 Мбайт (95%)
Библиотека кодирования : x264 core 130 r2273 b3065e6
Настройки программы : cabac=1 / ref=4 / deblock=1:-3:-3 / analyse=0x3:0x133 / me=umh / subme=9 / psy=1 / psy_rd=1.00:0.20 / mixed_ref=1 / me_range=32 / chroma_me=1 / trellis=2 / 8x8dct=1 / cqm=0 / deadzone=21,11 / fast_pskip=0 / chroma_qp_offset=-3 / threads=6 / lookahead_threads=1 / sliced_threads=0 / nr=0 / decimate=0 / interlaced=0 / bluray_compat=0 / constrained_intra=0 / bframes=3 / b_pyramid=2 / b_adapt=2 / b_bias=0 / direct=3 / weightb=1 / open_gop=0 / weightp=2 / keyint=250 / keyint_min=25 / scenecut=40 / intra_refresh=0 / rc_lookahead=50 / rc=2pass / mbtree=1 / bitrate=6000 / ratetol=1.0 / qcomp=0.60 / qpmin=0 / qpmax=69 / qpstep=4 / cplxblur=20.0 / qblur=0.5 / ip_ratio=1.40 / aq=1:1.00
Default : Да
Forced : Нет
Аудио
Идентификатор : 2
Формат : AC-3
Формат/Информация : Audio Coding 3
Расширение режима : CM (complete main)
Параметр Endianness формата : Big
Идентификатор кодека : A_AC3
Продолжительность : 22 м.
Вид битрейта : Постоянный
Битрейт : 192 Кбит/сек
Каналы : 2 канала
Расположение каналов : Front: L R
Частота : 48,0 КГц
Битовая глубина : 16 бит
Метод сжатия : С потерями
Размер потока : 30,3 Мбайт (3%)
Default : Да
Forced : Нет
Скриншоты:

Ещё 4

-

Внимание! Раздача ведётся путём добавления новых серий!

При каждом добавлении создаётся новый торрент-файл. Чтобы начать загрузку новой серии, пользователям необходимо сделать следующее:
1. остановить скачивание,
2. удалить старый торрент-файл у себя из клиента (старые серии удалять не надо),
3. скачать новый торрент и запустить его у себя в клиенте вместо старого, при этом указать путь в старую папку, куда и должно происходить скачивание новых серий.
Ваш клиент при этом должен произвести хеширование (проверку) старой папки (если не производит сам - помогите ему сделать это), и будет докачивать только те серии, которых у вас ещё нет. Старые серии при этом не удаляются, а продолжают раздаваться!
Eсли вы уже удалили старые серии, то предотвратить повторную закачку можно, отжав галочку в соответствующих местах при запуске нового торрента.
Добавлены 20я и 21я серии
Яндекс.Метрика
Рейтинг@Mail.ru