Такси: Бруклин / Taxi Brooklyn / Сезон: 1 / Серии: 1-6 из 12 (Жерар Кравчик / Gérard Krawczyk) [2014 г., Боевик, драма, криминал, комедия, HDTVRip] VO (xaros) [Sub (Rus, Eng), + Original (Eng)] [обновляемая]

 

Создавать темы 19-Авг-2014 02:35

-Такси: Бруклин / Taxi Brooklyn-- Производство: Франция, США, Europacorp Television, Gary Scott Thompson Productions
Жанр: Боевик, драма, криминал, комедия
Год выпуска: 2014 г.
Продолжительность: 00:42:00
Перевод: Любительский (одноголосый, закадровый) [xaros]
Оригинальный аудиопоток: английский
Режиссер: Фридерик Берт / Gérard Krawczyk, Жерар Кравчик / Gérard Krawczyk, Оливье Мегатон / Olivier Megaton, ...-В ролях: Кайлер Ли, Джеки Идо, Джеймс Колби, Хосе Суньига, Билл Хек, Элли Уокер, Рауль Кассо, Карл Дусена, Люк Робертс, Дженнифер Эспозито-Описание: События на этот раз происходят в Нью-Йорке. Молодой французский иммигрант по имени Лео мастерски вводит авто и работает таксистом. Он великолепно изучил местность мегаполиса, и в вождении автомобиля ему равных нет. Он встречает очаровательную девушку-полицейского. Детектив Кейтлин из полиции Бруклина расследует причины смерти своего отца, который был убит при исполнении служебного долга. Лео помогает ей в расследовании.-
Качество видео: HDTVRip
Контейнер: AVI
Стандарт разрешения: 480p
Видео кодек: XviD
Аудио кодек: MP3
Видео: 624x350 (1.78:1), XviD ~ 1022 kbps avg, 23.976 fps, ~ 0.20 bit/pixel
Аудио (rus): 128.00 kbps avg, 2 ch, 48 kHz
Аудио (eng): 128.00 kbps avg, 2 ch, 48 kHz
Cубтитры: русские (xaros), английские
Формат субтитров: softsub (SRT)

Список серий

01. Le prix de la course / Pilot - Цена маршрута
02. L’Héritage / Brooklyn Heights - Наследство / Бруклин Хайтс
03. Cherchez les Femmes - Ищите Женщину.
04. Esprit de famille / Precious Cargo - Основы Семьи / Опасный Груз
05. Témoin gênant / Ambush - Беспокойный Свидетель / Засада
06. Mourir d'aimer / Love Hurts - Смерть от Любви / Любовь Зла

MediaInfo

General
Complete name : B:\Сериалы, шоу\Taxi.Brooklyn.S01.HDTVRip.xaros\Taxi.Brooklyn.S01E01.HDTVRip.xaros.avi
Format : AVI
Format/Info : Audio Video Interleave
File size : 387 MiB
Duration : 41mn 52s
Overall bit rate : 1 293 Kbps
Writing application : VirtualDubMod 1.5.10.2 (build 2540/release)
Writing library : VirtualDubMod build 2540/release
Video
ID : 0
Format : MPEG-4 Visual
Format profile : Advanced [email protected]
Format settings, BVOP : 2
Format settings, QPel : No
Format settings, GMC : No warppoints
Format settings, Matrix : Default (H.263)
Muxing mode : Packed bitstream
Codec ID : XVID
Codec ID/Hint : XviD
Duration : 41mn 52s
Bit rate : 1 023 Kbps
Width : 624 pixels
Height : 350 pixels
Display aspect ratio : 16:9
Frame rate : 23.976 fps
Color space : YUV
Chroma subsampling : 4:2:0
Bit depth : 8 bits
Scan type : Progressive
Compression mode : Lossy
Bits/(Pixel*Frame) : 0.195
Stream size : 306 MiB (79%)
Writing library : XviD 65
Audio #1
ID : 1
Format : MPEG Audio
Format version : Version 1
Format profile : Layer 3
Mode : Joint stereo
Mode extension : MS Stereo
Codec ID : 55
Codec ID/Hint : MP3
Duration : 41mn 52s
Bit rate mode : Constant
Bit rate : 128 Kbps
Channel(s) : 2 channels
Sampling rate : 48.0 KHz
Compression mode : Lossy
Stream size : 38.3 MiB (10%)
Alignment : Aligned on interleaves
Interleave, duration : 42 ms (1.00 video frame)
Interleave, preload duration : 504 ms
Audio #2
ID : 2
Format : MPEG Audio
Format version : Version 1
Format profile : Layer 3
Mode : Joint stereo
Codec ID : 55
Codec ID/Hint : MP3
Duration : 41mn 52s
Bit rate mode : Constant
Bit rate : 128 Kbps
Channel(s) : 2 channels
Sampling rate : 48.0 KHz
Compression mode : Lossy
Stream size : 38.3 MiB (10%)
Alignment : Split accross interleaves
Interleave, duration : 42 ms (1.00 video frame)
Interleave, preload duration : 500 ms

Раздача ведётся путём добавления новых серий

Раздача ведётся путём добавления новых серий; при каждом добавлении создаётся новый торрент. Чтобы начать докачку новой серии, пользователям необходимо сделать следующее:
(1) остановить скачивание,
(2) удалить старый торрент у себя из клиента (старые серии удалять не надо),
(3) скачать новый торрент и запустить его у себя в клиенте вместо старого, при этом указать клиенту путь в старую папку куда и должно происходить скачивание новых серий.
Ваш клиент при этом должен произвести хеширование (проверку) старой папки (если не производит сам - помогите ему сделать это), и будет докачивать только те серии которых у вас ещё нет. Старые серии при этом не удаляются, а продолжают раздаваться!
Eсли вы уже удалили старые серии, то предотвратить повторную закачку старых серий можно, отжав галочку в соответствующих местах при запуске нового торрента. По возможности, желательно не удалять старые серии как можно дольше чтобы релизёр не только продолжал раздавать старые серии, а смог сконцентрироваться на новых.

Скриншоты


Яндекс.Метрика
Рейтинг@Mail.ru