Три балбеса / The Three Stooges (2012) BDRip-AVC от 0ptimus | P

 

Создавать темы 02-Ноя-2013 15:40

Информация о фильме
Название: Три балбеса
Оригинальное название: The Three Stooges
Год выхода: 2012
Жанр: комедия
Режиссер: Бобби Фаррелли, Питер Фаррелли
В ролях: Шон Хейс, Уилл Сассо, Крис Диамантополос, Джейн Линч, София Вергара, Дженнифер Хадсон, Крэйг Бирко, Стивен Коллинз, Ларри Дэвид, Кирби Хэйборн, Карли Крэйг, Кейт Аптон, Марианн Леоне, Брайан Дойл-Мюррей, Майк Соррентино, Николь Полицци, Дженни Фарли, Ронни Магро, Авалон Роббинс, Ли Армстронг, Эми Колигадо, Айзиа Мустафа, Марк Коган, Винс Канлас, Рик Рейц, Патриция Френч
О фильме:
Подкидыши Ларри, Кёрли и Мо выросли если и не полными кретинами, то уж звезд с неба точно не хватали. Видимо, от большого ума они, задавшись высокой целью спасти дом своего детства, вляпались в неприятную историю с убийством и в то же время стали героями фантастически успешного реалити-шоу на ТВ.
Страна: США
Студия: Conundrum Entertainment
Продолжительность: 01:32:04
Перевод: Профессиональный (многоголосый закадровый)
Файл
Кодек: h.264
Качество: BDRip-AVC
Видео: 3090 Кбит/с, 1024x554, 23.976 кадр/с
Аудио: Русский, английский (AC3, 6 ch, 384 Кбит/с)
Субтитры: Русские, английские

MediaInfo

-----------------------------------------------------------------------
x264 [info]: frame I:1260 Avg QP:18.34 size:108598
x264 [info]: frame P:29966 Avg QP:21.29 size: 32893
x264 [info]: frame B:101230 Avg QP:22.60 size: 9973
-----------------------------------------------------------------------
Полное имя : Tri.balbesa.2012.x264.BDRip.(AVC).0ptimus.mkv
Формат : Matroska
Версия формата : Version 4 / Version 2
Размер файла : 2,48 Гбайт
Продолжительность : 1 ч. 32 м.
Общий поток : 3858 Кбит/сек
Название фильма : Три балбеса | The Three Stooges [2012] -=BDRip (AVC) by 0ptimus=-
Дата кодирования : UTC 2013-11-01 16:51:42
Программа кодирования : mkvmerge v6.1.0 ('Old Devil') built on Mar 2 2013 14:32:37
Библиотека кодирования : libebml v1.3.0 + libmatroska v1.4.0
Видео
Идентификатор : 1
Формат : AVC
Формат/Информация : Advanced Video Codec
Профиль формата : [email protected]
Параметр CABAC формата : Да
Параметр ReFrames формата : 9 кадров
Идентификатор кодека : V_MPEG4/ISO/AVC
Продолжительность : 1 ч. 32 м.
Битрейт : 3090 Кбит/сек
Ширина : 1024 пикселя
Высота : 554 пикселя
Соотношение сторон : 16:9
Частота кадров : 23,976 кадра/сек
Цветовое пространство : YUV
Субдискретизация насыщенности : 4:2:0
Битовая глубина : 8 бит
Тип развёртки : Прогрессивная
Бит/(Пиксели*Кадры) : 0.227
Размер потока : 1,94 Гбайт (78%)
Заголовок : Rip by 0ptimus
Библиотека кодирования : x264 core 133 r2334 a3ac64b
Настройки программы : cabac=1 / ref=9 / deblock=1:-3:-3 / analyse=0x3:0x113 / me=umh / subme=11 / psy=1 / psy_rd=1.00:0.20 / mixed_ref=1 / me_range=32 / chroma_me=1 / trellis=2 / 8x8dct=1 / cqm=0 / deadzone=21,11 / fast_pskip=0 / chroma_qp_offset=-3 / threads=3 / lookahead_threads=1 / sliced_threads=0 / nr=0 / decimate=0 / interlaced=0 / bluray_compat=0 / constrained_intra=0 / bframes=12 / b_pyramid=2 / b_adapt=2 / b_bias=0 / direct=3 / weightb=1 / open_gop=0 / weightp=2 / keyint=240 / keyint_min=23 / scenecut=40 / intra_refresh=0 / rc_lookahead=40 / rc=2pass / mbtree=0 / bitrate=3090 / ratetol=1.0 / qcomp=0.60 / qpmin=0 / qpmax=69 / qpstep=4 / cplxblur=20.0 / qblur=0.5 / vbv_maxrate=50000 / vbv_bufsize=50000 / nal_hrd=none / ip_ratio=1.40 / pb_ratio=1.30 / aq=1:1.00
Язык : English
Аудио #1
Идентификатор : 2
Формат : AC-3
Формат/Информация : Audio Coding 3
Расширение режима : CM (complete main)
Идентификатор кодека : A_AC3
Продолжительность : 1 ч. 32 м.
Вид битрейта : Постоянный
Битрейт : 384 Кбит/сек
Каналы : 6 каналов
Расположение каналов : Front: L C R, Side: L R, LFE
Частота : 48,0 КГц
Битовая глубина : 16 бит
Метод сжатия : С потерями
Размер потока : 253 Мбайт (10%)
Заголовок : Многоголосый закадровый
Язык : Russian
Аудио #2
Идентификатор : 3
Формат : AC-3
Формат/Информация : Audio Coding 3
Расширение режима : CM (complete main)
Идентификатор кодека : A_AC3
Продолжительность : 1 ч. 32 м.
Вид битрейта : Постоянный
Битрейт : 384 Кбит/сек
Каналы : 6 каналов
Расположение каналов : Front: L C R, Side: L R, LFE
Частота : 48,0 КГц
Битовая глубина : 16 бит
Метод сжатия : С потерями
Размер потока : 253 Мбайт (10%)
Язык : English
Текст #1
Идентификатор : 4
Формат : UTF-8
Идентификатор кодека : S_TEXT/UTF8
Идентификатор кодека/Информация : UTF-8 Plain Text
Язык : Russian
Текст #2
Идентификатор : 5
Формат : UTF-8
Идентификатор кодека : S_TEXT/UTF8
Идентификатор кодека/Информация : UTF-8 Plain Text
Язык : English
Меню
00:00:00.000 : en:Chapter 1
00:02:58.219 : en:Chapter 2
00:05:55.146 : en:Chapter 3
00:11:52.837 : en:Chapter 4
00:14:58.272 : en:Chapter 5
00:17:11.447 : en:Chapter 6
00:20:08.332 : en:Chapter 7
00:23:23.193 : en:Chapter 8
00:25:56.346 : en:Chapter 9
00:34:39.619 : en:Chapter 10
00:39:31.827 : en:Chapter 11
00:43:33.485 : en:Chapter 12
00:47:13.330 : en:Chapter 13
00:50:10.257 : en:Chapter 14
00:53:45.722 : en:Chapter 15
00:57:48.173 : en:Chapter 16
01:00:19.532 : en:Chapter 17
01:04:39.333 : en:Chapter 18
01:09:12.148 : en:Chapter 19
01:14:28.338 : en:Chapter 20
01:16:54.735 : en:Chapter 21
01:20:13.391 : en:Chapter 22
01:25:32.836 : en:Chapter 23
01:26:19.090 : en:Chapter 24
01:32:04.268 : en:Chapter 25

Скриншоты

Релиз от:
Яндекс.Метрика
Рейтинг@Mail.ru