[ Сегодня на трекере фрилич! Идет свободное скачивание без начисления Download ]

(Violin, Electronic) Lindsey Stirling - Shatter Me [Target Exclusive] - 2014, FLAC (tracks+.cue), lossless

 

Создавать темы 18-Авг-2014 18:04

Lindsey Stirling - Shatter Me- Жанр: Violin, Electronic
Страна: США
Год издания: 2014-04-29
Аудиокодек: FLAC
Тип рипа: tracks+.cue
Битрейт аудио: lossless
Продолжительность: 00:58:40
Источник: what.cd

  • Beyond The Veil [04:15]
  • Mirror Haus [03:56]
  • V-Pop [03:46]
  • Shatter Me (feat. Lzzy Hale) [04:41]
  • Heist [03:27]
  • Roundtable Rival [03:23]
  • Night Vision [03:40]
  • Take Flight [04:24]
  • Ascendance [04:26]
  • We Are Giants (feat. Dia Frampton) [03:44]
  • Swag [03:10]
  • Master of Tides [04:22]
  • Eclipse [03:15]
  • Sun Skip [03:46]
  • Take Flight (orchestral version) [04:25]

    Лог создателя рипа

    X Lossless Decoder version 20140427 (146.0)
    XLD extraction logfile from 2014-04-29 20:51:20 -0400
    Lindsey Stirling / Shatter Me
    Used drive : HL-DT-ST DVDRAM GE24NU30 (revision NT00)
    Media type : Pressed CD
    Ripper mode             : XLD Secure Ripper
    Disable audio cache     : OK for the drive with a cache less than 1375KiB
    Make use of C2 pointers : NO
    Read offset correction  : 667
    Max retry count         : 100
    Gap status              : Analyzed, Appended (except HTOA)
    TOC of the extracted CD
         Track |   Start  |  Length  | Start sector | End sector
        ---------------------------------------------------------
            1  | 00:00:00 | 04:14:69 |         0    |    19118
            2  | 04:14:69 | 03:55:44 |     19119    |    36787
            3  | 08:10:38 | 03:45:62 |     36788    |    53724
            4  | 11:56:25 | 04:40:60 |     53725    |    74784
            5  | 16:37:10 | 03:26:64 |     74785    |    90298
            6  | 20:03:74 | 03:23:21 |     90299    |   105544
            7  | 23:27:20 | 03:40:11 |    105545    |   122055
            8  | 27:07:31 | 04:24:20 |    122056    |   141875
            9  | 31:31:51 | 04:26:19 |    141876    |   161844
           10  | 35:57:70 | 03:43:72 |    161845    |   178641
           11  | 39:41:67 | 03:10:14 |    178642    |   192905
           12  | 42:52:06 | 04:21:54 |    192906    |   212534
           13  | 47:13:60 | 03:15:20 |    212535    |   227179
           14  | 50:29:05 | 03:46:27 |    227180    |   244156
           15  | 54:15:32 | 04:24:73 |    244157    |   264029
    AccurateRip Summary
        Disc not found in AccurateRip DB.
    All Tracks
        Album gain               : -9.33 dB
        Peak                     : 0.991272
        Statistics
            Read error                           : 0
            Jitter error (maybe fixed)           : 0
            Retry sector count                   : 0
            Damaged sector count                 : 0
    Track 01
        Filename : /Volumes/Vomitself/Music/Lindsey Stirling/Shatter Me/01 Beyond the Veil.flac
        Pre-gap length : 00:02:00
        Track gain               : -9.27 dB
        Peak                     : 0.988647
        CRC32 hash (test run)    : B4223CFE
        CRC32 hash               : B4223CFE
        CRC32 hash (skip zero)   : A89E63AD
        AccurateRip v1 signature : F06550C9
        AccurateRip v2 signature : ACC6E7C0
            ->Track not present in AccurateRip database.
        Statistics
            Read error                           : 0
            Jitter error (maybe fixed)           : 0
            Retry sector count                   : 0
            Damaged sector count                 : 0
    Track 02
        Filename : /Volumes/Vomitself/Music/Lindsey Stirling/Shatter Me/02 Mirror Haus.flac
        Track gain               : -8.35 dB
        Peak                     : 0.988647
        CRC32 hash (test run)    : 3904C67F
        CRC32 hash               : 3904C67F
        CRC32 hash (skip zero)   : C9B3579B
        AccurateRip v1 signature : 7B0F2848
        AccurateRip v2 signature : 8E41B66D
            ->Track not present in AccurateRip database.
        Statistics
            Read error                           : 0
            Jitter error (maybe fixed)           : 0
            Retry sector count                   : 0
            Damaged sector count                 : 0
    Track 03
        Filename : /Volumes/Vomitself/Music/Lindsey Stirling/Shatter Me/03 V-Pop.flac
        Track gain               : -7.86 dB
        Peak                     : 0.988647
        CRC32 hash (test run)    : 2B48DC29
        CRC32 hash               : 2B48DC29
        CRC32 hash (skip zero)   : 616A4B59
        AccurateRip v1 signature : 10A770BE
        AccurateRip v2 signature : 5CFE2C1F
            ->Track not present in AccurateRip database.
        Statistics
            Read error                           : 0
            Jitter error (maybe fixed)           : 0
            Retry sector count                   : 0
            Damaged sector count                 : 0
    Track 04
        Filename : /Volumes/Vomitself/Music/Lindsey Stirling/Shatter Me/04 Shatter Me (feat. Lzzy Hale).flac
        Track gain               : -10.61 dB
        Peak                     : 0.991272
        CRC32 hash (test run)    : 22C54800
        CRC32 hash               : 22C54800
        CRC32 hash (skip zero)   : 0061041A
        AccurateRip v1 signature : 9A79BA11
        AccurateRip v2 signature : 4F4746CC
            ->Track not present in AccurateRip database.
        Statistics
            Read error                           : 0
            Jitter error (maybe fixed)           : 0
            Retry sector count                   : 0
            Damaged sector count                 : 0
    Track 05
        Filename : /Volumes/Vomitself/Music/Lindsey Stirling/Shatter Me/05 Heist.flac
        Track gain               : -9.01 dB
        Peak                     : 0.988647
        CRC32 hash (test run)    : 4E5097DA
        CRC32 hash               : 4E5097DA
        CRC32 hash (skip zero)   : 11572618
        AccurateRip v1 signature : 06D36AAB
        AccurateRip v2 signature : 72B8762E
            ->Track not present in AccurateRip database.
        Statistics
            Read error                           : 0
            Jitter error (maybe fixed)           : 0
            Retry sector count                   : 0
            Damaged sector count                 : 0
    Track 06
        Filename : /Volumes/Vomitself/Music/Lindsey Stirling/Shatter Me/06 Roundtable Rival.flac
        Track gain               : -10.27 dB
        Peak                     : 0.988647
        CRC32 hash (test run)    : 3563BBF9
        CRC32 hash               : 3563BBF9
        CRC32 hash (skip zero)   : 700B80C3
        AccurateRip v1 signature : 8CACD1E2
        AccurateRip v2 signature : CCAD170D
            ->Track not present in AccurateRip database.
        Statistics
            Read error                           : 0
            Jitter error (maybe fixed)           : 0
            Retry sector count                   : 0
            Damaged sector count                 : 0
    Track 07
        Filename : /Volumes/Vomitself/Music/Lindsey Stirling/Shatter Me/07 Night Vision.flac
        Track gain               : -8.91 dB
        Peak                     : 0.988617
        CRC32 hash (test run)    : CAF30E71
        CRC32 hash               : CAF30E71
        CRC32 hash (skip zero)   : 298FE4EC
        AccurateRip v1 signature : 30660E52
        AccurateRip v2 signature : 856E5B09
            ->Track not present in AccurateRip database.
        Statistics
            Read error                           : 0
            Jitter error (maybe fixed)           : 0
            Retry sector count                   : 0
            Damaged sector count                 : 0
    Track 08
        Filename : /Volumes/Vomitself/Music/Lindsey Stirling/Shatter Me/08 Take Flight.flac
        Track gain               : -9.39 dB
        Peak                     : 0.988617
        CRC32 hash (test run)    : 4FD19140
        CRC32 hash               : 4FD19140
        CRC32 hash (skip zero)   : 8E455AFB
        AccurateRip v1 signature : 8180A612
        AccurateRip v2 signature : 5145DD11
            ->Track not present in AccurateRip database.
        Statistics
            Read error                           : 0
            Jitter error (maybe fixed)           : 0
            Retry sector count                   : 0
            Damaged sector count                 : 0
    Track 09
        Filename : /Volumes/Vomitself/Music/Lindsey Stirling/Shatter Me/09 Ascendance.flac
        Track gain               : -7.42 dB
        Peak                     : 0.988617
        CRC32 hash (test run)    : C91D5843
        CRC32 hash               : C91D5843
        CRC32 hash (skip zero)   : 915C2D59
        AccurateRip v1 signature : 4AEF27CD
        AccurateRip v2 signature : 1E8FB0F2
            ->Track not present in AccurateRip database.
        Statistics
            Read error                           : 0
            Jitter error (maybe fixed)           : 0
            Retry sector count                   : 0
            Damaged sector count                 : 0
    Track 10
        Filename : /Volumes/Vomitself/Music/Lindsey Stirling/Shatter Me/10 We Are Giants (feat. Dia Frampton).flac
        Track gain               : -9.93 dB
        Peak                     : 0.988617
        CRC32 hash (test run)    : D1D8DEF6
        CRC32 hash               : D1D8DEF6
        CRC32 hash (skip zero)   : 807C23EE
        AccurateRip v1 signature : 4C04A5CC
        AccurateRip v2 signature : F3BE6CF6
            ->Track not present in AccurateRip database.
        Statistics
            Read error                           : 0
            Jitter error (maybe fixed)           : 0
            Retry sector count                   : 0
            Damaged sector count                 : 0
    Track 11
        Filename : /Volumes/Vomitself/Music/Lindsey Stirling/Shatter Me/11 Swag.flac
        Track gain               : -7.85 dB
        Peak                     : 0.988617
        CRC32 hash (test run)    : F65E6973
        CRC32 hash               : F65E6973
        CRC32 hash (skip zero)   : A6A324BA
        AccurateRip v1 signature : 15F9A5B6
        AccurateRip v2 signature : C22EC08F
            ->Track not present in AccurateRip database.
        Statistics
            Read error                           : 0
            Jitter error (maybe fixed)           : 0
            Retry sector count                   : 0
            Damaged sector count                 : 0
    Track 12
        Filename : /Volumes/Vomitself/Music/Lindsey Stirling/Shatter Me/12 Master of Tides.flac
        Track gain               : -7.97 dB
        Peak                     : 0.988617
        CRC32 hash (test run)    : D8DDC596
        CRC32 hash               : D8DDC596
        CRC32 hash (skip zero)   : 57A6969A
        AccurateRip v1 signature : 3FDD3D6C
        AccurateRip v2 signature : 54486152
            ->Track not present in AccurateRip database.
        Statistics
            Read error                           : 0
            Jitter error (maybe fixed)           : 0
            Retry sector count                   : 0
            Damaged sector count                 : 0
    Track 13
        Filename : /Volumes/Vomitself/Music/Lindsey Stirling/Shatter Me/13 Eclipse.flac
        Track gain               : -8.62 dB
        Peak                     : 0.988617
        CRC32 hash (test run)    : 62D07A87
        CRC32 hash               : 62D07A87
        CRC32 hash (skip zero)   : 9231FE51
        AccurateRip v1 signature : E2C4269F
        AccurateRip v2 signature : 01A7AFAB
            ->Track not present in AccurateRip database.
        Statistics
            Read error                           : 0
            Jitter error (maybe fixed)           : 0
            Retry sector count                   : 0
            Damaged sector count                 : 0
    Track 14
        Filename : /Volumes/Vomitself/Music/Lindsey Stirling/Shatter Me/14 Sun Skip.flac
        Track gain               : -9.17 dB
        Peak                     : 0.988617
        CRC32 hash (test run)    : B44FE34C
        CRC32 hash               : B44FE34C
        CRC32 hash (skip zero)   : 95607538
        AccurateRip v1 signature : 878E2401
        AccurateRip v2 signature : E8671EAD
            ->Track not present in AccurateRip database.
        Statistics
            Read error                           : 0
            Jitter error (maybe fixed)           : 0
            Retry sector count                   : 0
            Damaged sector count                 : 0
    Track 15
        Filename : /Volumes/Vomitself/Music/Lindsey Stirling/Shatter Me/15 Take Flight (orchestral version).flac
        Track gain               : -7.77 dB
        Peak                     : 0.988617
        CRC32 hash (test run)    : 77F97B41
        CRC32 hash               : 77F97B41
        CRC32 hash (skip zero)   : 132A29F5
        AccurateRip v1 signature : 226831A2
        AccurateRip v2 signature : E1A5400D
            ->Track not present in AccurateRip database.
        Statistics
            Read error                           : 0
            Jitter error (maybe fixed)           : 0
            Retry sector count                   : 0
            Damaged sector count                 : 0
    No errors occurred
    End of status report
    -----BEGIN XLD SIGNATURE-----
    83VvOObXbJ5Clc4aJY7TMfdATAO3IthwOpDEwjWg.huEQ3FWwVPsIYjEQkGic0uk_Nsf8vXyEGKHU_iy1ONiokeHrwFi5i2UqJN1ctm
    -----END XLD SIGNATURE-----
  • Яндекс.Метрика
    Рейтинг@Mail.ru