Меч в камне / The Sword In The Stone (1963) BDRip-AVC от MediaClub | D, P, A

 

Создавать темы 02-Ноя-2013 15:24

Название: Меч в камне
Оригинальное название: The Sword In The Stone
Год выпуска: 1963
Жанр: Фэнтези, приключения, семейный, полнометражный
Режиссер: Вольфганг Райтерман
В ролях: Себастьян Сабот, Карл Свенсон, Джуниос Мэтьюз, Джинни Тайлер, Марта Вентуорф, Норман Элден, Алан Напье, Ричард Рейтерман, Роберт Рейтерман
О фильме: В стародавние времена в центре Лондона появился громадный камень с замурованным в нем старинным мечом. Золотая надпись на мече гласила, что королем Англии станет тот, кто вытащит этот заколдованный меч, доказав тем самым свою особую силу и право на власть. Пока это не удавалось никому. А между тем в далекой лесной глуши жил себе 11-летний мальчик Артур, прислуживал в замке и даже не подозревал, что именно ему предначертано в будущем стать великом королем. Но это предвидел живший неподалеку волшебник Мерлин. Он и его ученый филин Архимед стали наставниками парнишки, подвергнув своего юного воспитанника всемозможным испытаниям. Его поочередно превращали в животных трех разных стихий — рыбу, белку и птицу, чтобы мог он познать правду жизни во всех ее проявлениях и понять, что не в мышцах, а в мудрости и знании и есть настоящая сила человека.
Страна: США
Студия: Walt Disney Pictures
Продолжительность: 01:19:43
Перевод: Дублированный, профессиональный многоголосый, авторский одноголосый
Файл
Кодек: MPEG-4 AVC
Качество: BDRip-AVC
Видео: 3000 Кбит/с, 1008x576, 23.976 кадр/с
Звук:
Аудио #1: Русский (AC3, 2 ch, 320 Кбит/с) / Дублированный
Аудио #2: Русский (AC3, 2 ch, 384 Кбит/с) / Профессиональный многоголосый (DVD Магия)
Аудио #3: Русский (AC3, 6 ch, 448 Кбит/с) / Авторский одноголосый (А.Михалев)
Аудио #4: Русский (AC3, 6 ch, 448 Кбит/с) / Авторский одноголосый (В.Дохалов)
Аудио #5: Русский (AC3, 2 ch, 192 Кбит/с) / Авторский одноголосый (Ю.Живов)
Аудио #6: Английский (AC3, 6 ch, 448 Кбит/с)
Субтитры: Русские
Семпл

Инфо-файл

Общее
Уникальный идентификатор : 170910891153023808584991831974855111975 (0x80943D84E9E6128786A34E827E3CF527)
Полное имя : F:TorrentsMech.v.kamne.1963.x264.BDRip.(AVC)-MediaClub.mkv
Формат : Matroska
Версия формата : Version 2
Размер файла : 2,92 Гбайт
Продолжительность : 1 ч. 19 м.
Общий поток : 5236 Кбит/сек
Название фильма : -=Released by Kortec for MediaClub=-
Дата кодирования : UTC 2013-07-25 14:57:47
Программа кодирования : mkvmerge v4.0.0 ('The Stars were mine') сборка от Jun 6 2010 16:18:42
Библиотека кодирования : libebml v1.0.0 + libmatroska v1.0.0
Видео
Идентификатор : 1
Формат : AVC
Формат/Информация : Advanced Video Codec
Профиль формата : [email protected]
Параметр CABAC формата : Да
Параметр ReFrames формата : 9 кадров
Идентификатор кодека : V_MPEG4/ISO/AVC
Продолжительность : 1 ч. 19 м.
Битрейт : 3000 Кбит/сек
Ширина : 1008 пикселей
Высота : 576 пикселей
Соотношение сторон : 16:9
Режим частоты кадров : Постоянный
Частота кадров : 23,976 кадра/сек
Цветовое пространство : YUV
Субдискретизация насыщенности : 4:2:0
Битовая глубина : 8 бит
Тип развёртки : Прогрессивная
Бит/(Пиксели*Кадры) : 0.216
Размер потока : 1,61 Гбайт (55%)
Библиотека кодирования : x264 core 130 r2273 b3065e6
Настройки программы : cabac=1 / ref=9 / deblock=1:-2:-2 / analyse=0x3:0x133 / me=umh / subme=11 / psy=1 / psy_rd=1.00:0.10 / mixed_ref=1 / me_range=32 / chroma_me=1 / trellis=2 / 8x8dct=1 / cqm=0 / deadzone=21,11 / fast_pskip=0 / chroma_qp_offset=-3 / threads=6 / lookahead_threads=1 / sliced_threads=0 / nr=0 / decimate=0 / interlaced=0 / bluray_compat=0 / constrained_intra=0 / bframes=7 / b_pyramid=2 / b_adapt=2 / b_bias=0 / direct=3 / weightb=1 / open_gop=0 / weightp=2 / keyint=240 / keyint_min=23 / scenecut=40 / intra_refresh=0 / rc=2pass / mbtree=0 / bitrate=3000 / ratetol=1.0 / qcomp=0.60 / qpmin=0 / qpmax=69 / qpstep=4 / cplxblur=20.0 / qblur=0.5 / ip_ratio=1.40 / pb_ratio=1.30 / aq=1:0.80
Язык : English
Default : Нет
Forced : Нет
Аудио #1
Идентификатор : 2
Формат : AC-3
Формат/Информация : Audio Coding 3
Профиль формата : Dolby Digital
Расширение режима : CM (complete main)
Параметр Endianness формата : Big
Идентификатор кодека : A_AC3
Продолжительность : 1 ч. 19 м.
Вид битрейта : Постоянный
Битрейт : 320 Кбит/сек
Каналы : 2 канала
Расположение каналов : Front: L R
Частота : 48,0 КГц
Битовая глубина : 16 бит
Метод сжатия : С потерями
Размер потока : 182 Мбайт (6%)
Заголовок : DUB
Язык : Russian
Default : Да
Forced : Да
Аудио #2
Идентификатор : 3
Формат : AC-3
Формат/Информация : Audio Coding 3
Расширение режима : CM (complete main)
Параметр Endianness формата : Big
Идентификатор кодека : A_AC3
Продолжительность : 1 ч. 19 м.
Вид битрейта : Постоянный
Битрейт : 384 Кбит/сек
Каналы : 6 каналов
Расположение каналов : Front: L C R, Side: L R, LFE
Частота : 48,0 КГц
Битовая глубина : 16 бит
Метод сжатия : С потерями
Задержка видео : 8 мс.
Размер потока : 219 Мбайт (7%)
Заголовок : MVO DVD-Магия
Язык : Russian
Default : Нет
Forced : Нет
Аудио #3
Идентификатор : 4
Формат : AC-3
Формат/Информация : Audio Coding 3
Расширение режима : CM (complete main)
Параметр Endianness формата : Big
Идентификатор кодека : A_AC3
Продолжительность : 1 ч. 19 м.
Вид битрейта : Постоянный
Битрейт : 448 Кбит/сек
Каналы : 6 каналов
Расположение каналов : Front: L C R, Side: L R, LFE
Частота : 48,0 КГц
Битовая глубина : 16 бит
Метод сжатия : С потерями
Задержка видео : 24 мс.
Размер потока : 255 Мбайт (9%)
Заголовок : AVO Михалев
Язык : Russian
Default : Нет
Forced : Нет
Аудио #4
Идентификатор : 5
Формат : AC-3
Формат/Информация : Audio Coding 3
Расширение режима : CM (complete main)
Параметр Endianness формата : Big
Идентификатор кодека : A_AC3
Продолжительность : 1 ч. 19 м.
Вид битрейта : Постоянный
Битрейт : 448 Кбит/сек
Каналы : 6 каналов
Расположение каналов : Front: L C R, Side: L R, LFE
Частота : 48,0 КГц
Битовая глубина : 16 бит
Метод сжатия : С потерями
Задержка видео : 24 мс.
Размер потока : 255 Мбайт (9%)
Заголовок : AVO Дохалов
Язык : Russian
Default : Нет
Forced : Нет
Аудио #5
Идентификатор : 6
Формат : AC-3
Формат/Информация : Audio Coding 3
Расширение режима : CM (complete main)
Параметр Endianness формата : Big
Идентификатор кодека : A_AC3
Продолжительность : 1 ч. 19 м.
Вид битрейта : Постоянный
Битрейт : 192 Кбит/сек
Каналы : 2 канала
Расположение каналов : Front: L R
Частота : 48,0 КГц
Битовая глубина : 16 бит
Метод сжатия : С потерями
Задержка видео : 24 мс.
Размер потока : 109 Мбайт (4%)
Заголовок : AVO Живов
Язык : Russian
Default : Нет
Forced : Нет
Аудио #6
Идентификатор : 7
Формат : AC-3
Формат/Информация : Audio Coding 3
Расширение режима : CM (complete main)
Параметр Endianness формата : Big
Идентификатор кодека : A_AC3
Продолжительность : 1 ч. 19 м.
Вид битрейта : Постоянный
Битрейт : 448 Кбит/сек
Каналы : 6 каналов
Расположение каналов : Front: L C R, Side: L R, LFE
Частота : 48,0 КГц
Битовая глубина : 16 бит
Метод сжатия : С потерями
Размер потока : 255 Мбайт (9%)
Язык : English
Default : Нет
Forced : Нет
Текст
Идентификатор : 8
Формат : UTF-8
Идентификатор кодека : S_TEXT/UTF8
Идентификатор кодека/Информация : UTF-8 Plain Text
Язык : Russian
Default : Нет
Forced : Нет

Скриншоты

Релиз от: |
Яндекс.Метрика
Рейтинг@Mail.ru