[ Сегодня на трекере фрилич! Идет свободное скачивание без начисления Download ]

Повелитель страниц / The Pagemaster (1994) BDRip от 0ptimus | P, A

 

Создавать темы 02-Ноя-2013 12:09

Название: Повелитель страниц
Оригинальное название: The Pagemaster
Год выхода: 1994
Жанр: Мультфильм, фэнтези, мелодрама, комедия, детектив, приключения, семейный
Режиссер: Пиксоут Хант, Джо Джонстон
В ролях: Маколей Калкин, Кристофер Ллойд, Мел Харрис, Патрик Стюарт, Вупи Голдберг, Эд Бегли, Алексис Киршнер, Брэндон С. МакКэй, Стефен Шиэн, Фрэнк Уэлкер, Леонард Нимой, Ричард Эрдман, Роберт Пикардо, Фил Хартман
О фильме:
Прекрасное сочетание актерского кино и мультипликации! Десятилетний пессимист Ричард Тайлер строит свою жизнь основываясь на статистике и боится практически всего на свете. Его родители пытались развить в сыне храбрость, но их попытки принесли мало пользы. Как-то раз, пытаясь спастись от ливня с грозой, забегает в первое попавшееся на пути здание, которое оказывается библиотекой. В этой библиотеке может произойти любое чудо. Теперь этот мальчик, превратившись в мультяшку, вместе со своими любимыми героями книг, отправляется в увлекательное мультипликационное путешествие, где сказочный Повелитель Страниц (Кристофер Ллойд в роли библиотекаря), пронесет его по просторам волшебной страны, научит оказывать помощь другим и преодолевать любые трудности на своем пути!..

Страна: США
Студия: Twentieth Century Fox
Продолжительность: 01:15:24
Перевод: Профессиональный (многоголосый закадровый), авторский (одноголосый закадровый)
Кодек: XviD
Качество: BDRip
Видео: 1840 Кбит/с, 704x384, 23.976 кадр/с
Звук:
Аудио #1: Русский (AC3, 6 ch, 448 Кбит/с) / Профессиональный многоголосый
Аудио #2: Английский (AC3, 6 ch, 448 Кбит/с)
Отдельно:
Аудио #3: Русский (AC3, 6 ch, 448 Кбит/с) / Авторский одноголосый (Юрий Сербин)
Аудио #4: Русский (AC3, 6 ch, 448 Кбит/с) / Авторский одноголосый (Сергей Визгунов)
Аудио #5: Русский (AC3, 2 ch, 192 Кбит/с) / Авторский одноголосый (Вартан Дохалов)
Аудио #6: Русский (AC3, 2 ch, 192 Кбит/с) / Авторский одноголосый (Антон Пронин)
Субтитры: Русские, английские

MediaInfo

Полное имя : The.Pagemaster.1994.XviD.BDRip.0ptimus.avi
Формат : AVI
Формат/Информация : Audio Video Interleave
Размер файла : 1,45 Гбайт
Продолжительность : 1 ч. 15 м.
Общий поток : 2750 Кбит/сек
Название фильма : Повелитель страниц | The Pagemaster [1994]
Режиссёр : 0ptimus
Жанр : Детский, семейный, приключен
Программа кодирования : VirtualDubMod 1.5.10.2 (build 2540/release)
Правообладатель : kinozal.tv
Примечание : MVO, AVO, Eng
Видео
Идентификатор : 0
Формат : MPEG-4 Visual
Профиль формата : Advanced [email protected]
Параметр BVOP формата : 1
Параметр QPel формата : Нет
Параметр GMC формата : Без точки перехода
Параметр матрицы формата : Выборочная
Идентификатор кодека : XVID
Идентификатор кодека/Подсказка : XviD
Продолжительность : 1 ч. 15 м.
Битрейт : 1840 Кбит/сек
Ширина : 704 пикселя
Высота : 384 пикселя
Соотношение сторон : 16:9
Частота кадров : 23,976 кадра/сек
Цветовое пространство : YUV
Субдискретизация насыщенности : 4:2:0
Битовая глубина : 8 бит
Тип развёртки : Прогрессивная
Метод сжатия : С потерями
Бит/(Пиксели*Кадры) : 0.284
Размер потока : 993 Мбайт (67%)
Библиотека кодирования : XviD 1.2.1 (UTC 2008-12-04)
Аудио #1
Идентификатор : 1
Формат : AC-3
Формат/Информация : Audio Coding 3
Расширение режима : CM (complete main)
Идентификатор кодека : 2000
Продолжительность : 1 ч. 15 м.
Вид битрейта : Постоянный
Битрейт : 448 Кбит/сек
Каналы : 6 каналов
Расположение каналов : Front: L C R, Side: L R, LFE
Частота : 48,0 КГц
Битовая глубина : 16 бит
Метод сжатия : С потерями
Размер потока : 242 Мбайт (16%)
Выравнивание : Разделение по промежуткам
Продолжительность промежутка : 42 мс. (1,00 видеокадр)
Время предзагрузки промежутка : 500 мс.
Аудио #2
Идентификатор : 2
Формат : AC-3
Формат/Информация : Audio Coding 3
Расширение режима : CM (complete main)
Идентификатор кодека : 2000
Продолжительность : 1 ч. 15 м.
Вид битрейта : Постоянный
Битрейт : 448 Кбит/сек
Каналы : 6 каналов
Расположение каналов : Front: L C R, Side: L R, LFE
Частота : 48,0 КГц
Битовая глубина : 16 бит
Метод сжатия : С потерями
Размер потока : 242 Мбайт (16%)
Выравнивание : Разделение по промежуткам
Продолжительность промежутка : 42 мс. (1,00 видеокадр)
Время предзагрузки промежутка : 500 мс.

Скриншоты

Релиз от:
Яндекс.Метрика
Рейтинг@Mail.ru