Простая история лапши / A Woman, a Gun and a Noodle Shop / San qiang pai an jing qi (2009) BDRip

 

Создавать темы 16-Авг-2014 12:03

- Простая история лапши / A Woman, a Gun and a Noodle Shop / San qiang pai an jing qi (2009) BDRip - Год выпуска: 2009
Производство: Китай, Гонконг / Beijing New Picture Film Co., Film Partner International
Жанр: Драма, КомедияОписание фильма:
В районе пустыни работает закусочная, основным блюдом которой является лапша. Хозяин закусочной злой и коварный, часто мучает свою жену, поэтому хозяйка влюбилась в доброго официанта – Ли Сы. Чтобы защитить себя, хозяйка купила пистолет. Узнав об этом, хозяин нанял убийцу, чтобы тихо и незаметно убить любовников. Хозяйка и Ли Сы мечтают о будущем и не ожидают, что к ним приближается смерть...
Оправдаются ли кровавые надежды хозяина? В чьи руки попадет пистолет хозяйки?
Фильм «Простая история лапши» – римейк дебютного фильма братьев Коэн «Просто кровь» («Blood Simple»). Популярные актеры Хунлэй Сунь, Ни Янь, юморист Сяо Шэнь-Ян – это необыкновенная группа. В некоторых эпизодах фильма играет известный комик Бэньшань Чжао...
Режиссер: Чжан Имоу
Актеры: Хунлэй Сунь, Сяо Шэнь-Ян, Ни Янь, Дахун Ни, Йе Чэн, Мао Мао, Бэньшань Чжао, Ран Чэн, Жюльен Годфруа, Шуо Хуанг
Продолжительность: 01:30:02
Качество видео: BDRip
Перевод: Многоголосый закадровый, профессиональный (BBC Saint-Petersburg)
Язык субтитров: Русский, Английский
Вид субтитров: Отдельным файлом (*.srt)

Дата мировой премьеры: 11 декабря 2009
Видео: MPEG-4 XviD, 720x304 (2.35:1), 23.976 fps, ~2292 Kb/s (0.437 bit/pixel)
Аудио#1: AC-3, 48.0 KHz, 5.1 ch, 384 Kb/s, CBR | Russian (МVO) - BBC Saint-Petersburg
Аудио#2: AC-3, 48.0 KHz, 5.1 ch, 384 Kb/s, CBR | Russian (VO) - Ю.Сербин
Аудио#3: AC-3, 48.0 KHz, 5.1 ch, 384 Kb/s, CBR | Chinese (Original)

MediaInfo

Общее
Полное имя                               : A.Woman.a.Gun.and.a.Noodle.Shop.2009.BDRip.avi
Формат                                   : AVI
Формат/Информация                        : Audio Video Interleave
Профиль формата                          : OpenDML
Размер файла                             : 2,18 Гбайт
Продолжительность                        : 1 ч. 30 м.
Общий поток                              : 3467 Кбит/сек
Программа кодирования                    : VirtualDubMod 1.5.10.2 (build 2542/release)
Библиотека кодирования                   : VirtualDubMod build 2542/release
Видео
Идентификатор                            : 0
Формат                                   : MPEG-4 Visual
Профиль формата                          : Advanced [email protected]
Параметр BVOP формата                    : 1
Параметр QPel формата                    : Нет
Параметр GMC формата                     : Без точки перехода
Параметр матрицы формата                 : Default (MPEG)
Идентификатор кодека                     : XVID
Идентификатор кодека/Подсказка           : XviD
Продолжительность                        : 1 ч. 30 м.
Битрейт                                  : 2292 Кбит/сек
Ширина                                   : 720 пикселей
Высота                                   : 304 пикселя
Соотношение сторон                       : 2,35:1
Частота кадров                           : 23,976 кадра/сек
Цветовое пространство                    : YUV
Субдискретизация насыщенности            : 4:2:0
Битовая глубина                          : 8 бит
Тип развёртки                            : Прогрессивная
Метод сжатия                             : С потерями
Бит/(Пиксели*Кадры)                      : 0.437
Размер потока                            : 1,44 Гбайт (66%)
Библиотека кодирования                   : XviD 57
Аудио #1
Идентификатор                            : 1
Формат                                   : AC-3
Формат/Информация                        : Audio Coding 3
Расширение режима                        : CM (complete main)
Параметр Endianness формата              : Big
Идентификатор кодека                     : 2000
Продолжительность                        : 1 ч. 30 м.
Вид битрейта                             : Постоянный
Битрейт                                  : 384 Кбит/сек
Каналы                                   : 6 каналов
Расположение каналов                     : Front: L C R, Side: L R, LFE
Частота                                  : 48,0 КГц
Битовая глубина                          : 16 бит
Метод сжатия                             : С потерями
Размер потока                            : 247 Мбайт (11%)
Выравнивание                             : Разделение по промежуткам
Продолжительность промежутка             : 42  мс. (1,00 видеокадр)
Время предзагрузки промежутка            : 500  мс.
Аудио #2
Идентификатор                            : 2
Формат                                   : AC-3
Формат/Информация                        : Audio Coding 3
Расширение режима                        : CM (complete main)
Параметр Endianness формата              : Big
Идентификатор кодека                     : 2000
Продолжительность                        : 1 ч. 30 м.
Вид битрейта                             : Постоянный
Битрейт                                  : 384 Кбит/сек
Каналы                                   : 6 каналов
Расположение каналов                     : Front: L C R, Side: L R, LFE
Частота                                  : 48,0 КГц
Битовая глубина                          : 16 бит
Метод сжатия                             : С потерями
Размер потока                            : 247 Мбайт (11%)
Выравнивание                             : Разделение по промежуткам
Продолжительность промежутка             : 42  мс. (1,00 видеокадр)
Время предзагрузки промежутка            : 500  мс.
Аудио #3
Идентификатор                            : 3
Формат                                   : AC-3
Формат/Информация                        : Audio Coding 3
Расширение режима                        : CM (complete main)
Параметр Endianness формата              : Big
Идентификатор кодека                     : 2000
Продолжительность                        : 1 ч. 30 м.
Вид битрейта                             : Постоянный
Битрейт                                  : 384 Кбит/сек
Каналы                                   : 6 каналов
Расположение каналов                     : Front: L C R, Side: L R, LFE
Частота                                  : 48,0 КГц
Битовая глубина                          : 16 бит
Метод сжатия                             : С потерями
Размер потока                            : 247 Мбайт (11%)
Выравнивание                             : Разделение по промежуткам
Продолжительность промежутка             : 42  мс. (1,00 видеокадр)
Время предзагрузки промежутка            : 500  мс.

Скриншоты:

Яндекс.Метрика
Рейтинг@Mail.ru