Новый Человек-паук: Высокое напряжение / The Amazing Spider-Man 2 (Марк Уэбб / Marc Webb) [2014 г., Фэнтези, боевик, приключения, HDRip] Dub

 

Создавать темы 16-Авг-2014 02:38

-Новый Человек-паук: Высокое напряжение
The Amazing Spider-Man 2
«No more secrets»-- Производство: США, Marvel Enterprises, Avi Arad Productions, Columbia Pictures
Год выпуска: 2014 г.
Жанр: Фэнтези, боевик, приключения
Продолжительность: 02:21:34
Мировая премьера: 10 апреля 2014
Российская премьера: 24 апреля 2014, «WDSSPR»
Дата выхода DVD: 21 августа 2014, «CP Дистрибуция»
Дата выхода Blu-Ray: 21 августа 2014, «CP Дистрибуция»
Перевод: Дублированный |Лицензия Blu-ray CEE|
Режиссер: Марк Уэбб / Marc Webb-В ролях: Эндрю Гарфилд, Эмма Стоун, Джейми Фокс, Дэйн ДеХаан, Колм Фиор, Фелисити Джонс, Пол Джаматти, Салли Филд, Эмбет Дэвидц, Кэмпбелл Скотт-Описание:
Питер Паркер под маской Человека-паука по-прежнему спасает мир от злодеев и преступников, а свободное время проводит со своей возлюбленной Гвен, но школьная пора близится к концу, и впереди героев ждет взрослая жизнь. Питер помнит о том, что дал отцу Гвен слово навсегда уйти из жизни девушки, тем самым больше не подвергая ее опасности. Однако сдержать это обещание не так просто. Судьба готовит Питеру сюрпризы: на его пути появится новый противник — Электро, а также ему будет суждено вновь встретиться с давним приятелем Гарри Озборном и узнать много нового о прошлом своей семьи.-Качество видео: HDRip
Контейнер: AVI
Видео кодек: XviD
Аудио кодек: AC3
Видео: MPEG-4 Visual at 1023 Кбит/сек: 720 x 304 (2.368) at 23.976 fps, 0.20 bit/pixel
Аудио: AC-3 at 448 Кбит/сек: 6 каналов, 48,0 КГц
Cубтитры: отсутствуют
-

Media Info

Общее
Полное имя                               : E:\uTorDown\Films\Новый Человек-паук_pirat.ca.2014.avi
Формат                                   : AVI
Формат/Информация                        : Audio Video Interleave
Размер файла                             : 1,46 Гбайт
Продолжительность                        : 2 ч. 21 м.
Общий поток                              : 1480 Кбит/сек
Название фильма                          : Новый человек паук.Высокое напряжение
Жанр                                     : Фэнтези,приключения
Программа кодирования                    : VirtualDubModRus 1.5.10.2 (build 2542/release)
Правообладатель                          : Pirat.ca
Видео
Идентификатор                            : 0
Формат                                   : MPEG-4 Visual
Профиль формата                          : Advanced [email protected]
Параметр BVOP формата                    : 2
Параметр QPel формата                    : Нет
Параметр GMC формата                     : Без точки перехода
Параметр матрицы формата                 : Выборочная
Режим смешивания                         : Сжатый битовый поток
Идентификатор кодека                     : XVID
Идентификатор кодека/Подсказка           : XviD
Продолжительность                        : 2 ч. 21 м.
Битрейт                                  : 1023 Кбит/сек
Ширина                                   : 720 пикселей
Высота                                   : 304 пикселя
Соотношение сторон                       : 2,35:1
Частота кадров                           : 23,976 кадра/сек
Цветовое пространство                    : YUV
Субдискретизация насыщенности            : 4:2:0
Битовая глубина                          : 8 бит
Тип развёртки                            : Прогрессивная
Метод сжатия                             : С потерями
Бит/(Пиксели*Кадры)                      : 0.195
Размер потока                            : 1,01 Гбайт (69%)
Библиотека кодирования                   : XviD 65
Аудио
Идентификатор                            : 1
Формат                                   : AC-3
Формат/Информация                        : Audio Coding 3
Расширение режима                        : CM (complete main)
Параметр Endianness формата              : Big
Идентификатор кодека                     : 2000
Продолжительность                        : 2 ч. 21 м.
Вид битрейта                             : Постоянный
Битрейт                                  : 448 Кбит/сек
Каналы                                   : 6 каналов
Расположение каналов                     : Front: L C R, Side: L R, LFE
Частота                                  : 48,0 КГц
Битовая глубина                          : 16 бит
Метод сжатия                             : С потерями
Размер потока                            : 454 Мбайт (30%)
Выравнивание                             : Разделение по промежуткам
Продолжительность промежутка             : 42  мс. (1,00 видеокадр)
Время предзагрузки промежутка            : 500  мс.
Заголовок                                : DUB-лицензия
-

Скриншоты

Яндекс.Метрика
Рейтинг@Mail.ru