Смешанные / Blended (Фрэнк Корачи / Frank Coraci) [2014 г., Комедия, HDRip] Dub (iTunes) + Original (Eng)

 

Создавать темы 16-Авг-2014 02:36

-Смешанные / Blended- Производство: США / Warner Bros. Pictures, Gulfstream Pictures, Happy Madison Productions
Год выпуска: 2014 г.
Жанр: Комедия
Продолжительность: 01:57:13
Мировая премьера: 22 мая 2014
Российская премьера: 19 июня 2014, «Каро-Премьер»
Дата выхода DVD: 28 августа 2014, «CP Дистрибуция»
Дата выхода Blu-Ray: 28 августа 2014, «CP Дистрибуция»
Перевод: Профессиональный (полное дублирование) [iTunes]
Оригинальный аудиопоток: английский-Режиссер: Фрэнк Корачи / Frank Coraci
В ролях: Адам Сэндлер, Дрю Бэрримор, Кевин Нилон, Терри Крюс, Венди МакЛендон-Кови, Эмма Фурманн, Белла Торн, Брэкстон Бэкхам, Аливия Элин Линд, Джоэл МакХэйл-Описание: После неудачного свидания вслепую мужчина и женщина оказываются застрявшими вместе на семейном курорте…- -Качество видео: HDRip
Контейнер: AVI
Видео кодек: XviD
Аудио кодек: AC3
Видео: 720x384 (1.88:1), 23.976 fps, XviD build 50 ~1734 kbps avg, 0.26 bit/pixel
Аудио: 48 kHz, AC3 Dolby Digital, 3/2 (L,C,R,l,r) + LFE ch, ~384 kbps (RUS)
Аудио #2: 48 kHz, AC3 Dolby Digital, 3/2 (L,C,R,l,r) + LFE ch, ~384 kbps (ENG)
Cубтитры: отсутствуют

Media Info

General
Complete name : D:\Smeshann1e.2014.D.HDRip.2100Mb.avi
Format : AVI
Format/Info : Audio Video Interleave
Format profile : OpenDML
File size : 2.05 GiB
Duration : 1h 57mn
Overall bit rate : 2 509 Kbps
Writing application : VirtualDubMod 1.5.10.3 | www.virtualdub-fr.org || (build 2550/release)
Writing library : VirtualDubMod build 2550/release
Video
ID : 0
Format : MPEG-4 Visual
Format profile : Advanced [email protected]
Format settings, BVOP : 2
Format settings, QPel : No
Format settings, GMC : No warppoints
Format settings, Matrix : Default (MPEG)
Codec ID : XVID
Codec ID/Hint : XviD
Duration : 1h 57mn
Bit rate : 1 723 Kbps
Width : 720 pixels
Height : 384 pixels
Display aspect ratio : 1.85:1
Frame rate : 23.976 fps
Color space : YUV
Chroma subsampling : 4:2:0
Bit depth : 8 bits
Scan type : Progressive
Compression mode : Lossy
Bits/(Pixel*Frame) : 0.260
Stream size : 1.41 GiB (69%)
Writing library : XviD 1.2.1 (UTC 2008-12-04)
Audio #1
ID : 1
Format : AC-3
Format/Info : Audio Coding 3
Mode extension : CM (complete main)
Format settings, Endianness : Big
Codec ID : 2000
Duration : 1h 57mn
Bit rate mode : Constant
Bit rate : 384 Kbps
Channel(s) : 6 channels
Channel positions : Front: L C R, Side: L R, LFE
Sampling rate : 48.0 KHz
Bit depth : 16 bits
Compression mode : Lossy
Stream size : 322 MiB (15%)
Alignment : Split accross interleaves
Interleave, duration : 42 ms (1.00 video frame)
Interleave, preload duration : 500 ms
Audio #2
ID : 2
Format : AC-3
Format/Info : Audio Coding 3
Mode extension : CM (complete main)
Format settings, Endianness : Big
Codec ID : 2000
Duration : 1h 57mn
Bit rate mode : Constant
Bit rate : 384 Kbps
Channel(s) : 6 channels
Channel positions : Front: L C R, Side: L R, LFE
Sampling rate : 48.0 KHz
Bit depth : 16 bits
Compression mode : Lossy
Stream size : 322 MiB (15%)
Alignment : Split accross interleaves
Interleave, duration : 42 ms (1.00 video frame)
Interleave, preload duration : 500 ms

Скриншоты

Яндекс.Метрика
Рейтинг@Mail.ru