Безумие / The Wackness (Джонатан Левин / Jonathan Levine) [2008 г., драма, мелодрама, комедия, BDRip] DVO (R5) + DVO + Original (Eng)

 

Создавать темы 16-Авг-2014 02:29

-Безумие / The Wackness- Производство: США, Великобритания, Occupant Entertainment, SBK Pictures
Год выпуска: 2008 г.
Жанр: драма, мелодрама, комедия
Продолжительность: 01:38:45
Мировая премьера: 18 января 2008
Дата выхода DVD: 22 марта 2012, «Союз-Видео»
Перевод: Профессиональный (двухголосый, закадровый) [R5]
Перевод 2: Профессиональный (двухголосый, закадровый)
Оригинальный аудиопоток: английский-Режиссер: Джонатан Левин / Jonathan Levine
В ролях: Бен Кингсли, Джош Пек, Фамке Янссен, Оливия Тирлби, Мэри-Кейт Олсен, Джейн Адамс, Метод Мэн, Аарон Йу, Талия Болсам, Дэвид Уол-Описание: Лето 1994 — улицы Нью-Йорка пульсируют от хип-хопа и облака марихуаны двигаются своим путем… Нововыбранный мэр Рудольф Гулиани только начинает принимать меры против таких преступлений как громкое радио, рисунки на стенах и пьянство. Безумие показывает нам Люка Шапиро, студента и наркодилера, который подружился с доктором Джефри Сквиресом, психиатором и просто родственной душой. Когда доктор предложил Люку продать ему наркотик для сеансов терапии оба начинают исследовать глубины Нью-Йорка и своей депрессии.- -Качество видео: BDRip
Контейнер: AVI
Видео кодек: XviD
Аудио кодек: AC3
Видео: 720x304 (2.37:1), 23.976 fps, XviD build 65 ~2069 kbps avg, 0.39 bit/pixel
Аудио: 48 kHz, AC3 Dolby Digital, 2/0 (L,R) ch, ~192 kbps (DVO) R5
Аудио #2: 48 kHz, AC3 Dolby Digital, 3/2 (L,C,R,l,r) + LFE ch, ~448 kbps (DVO)
Аудио #3: 48 kHz, AC3 Dolby Digital, 3/2 (L,C,R,l,r) + LFE ch, ~448 kbps (ENG)
Cубтитры: отсутствуют

Media Info

General
Complete name : D:\Bezumie.2008.TRIPLE.BDRip.XviD.AC3.-HQCLUB.avi
Format : AVI
Format/Info : Audio Video Interleave
Format profile : OpenDML
File size : 2.18 GiB
Duration : 1h 38mn
Overall bit rate : 3 164 Kbps
Writing application : VirtualDubMod 1.5.10.2 (build 2542/release)
Comment : 13.08.2014
Video
ID : 0
Format : MPEG-4 Visual
Format profile : Advanced [email protected]
Format settings, BVOP : 1
Format settings, QPel : No
Format settings, GMC : No warppoints
Format settings, Matrix : Custom
Codec ID : XVID
Codec ID/Hint : XviD
Duration : 1h 38mn
Bit rate : 2 053 Kbps
Width : 720 pixels
Height : 304 pixels
Display aspect ratio : 2.35:1
Frame rate : 23.976 fps
Color space : YUV
Chroma subsampling : 4:2:0
Bit depth : 8 bits
Scan type : Progressive
Compression mode : Lossy
Bits/(Pixel*Frame) : 0.391
Stream size : 1.42 GiB (65%)
Writing library : XviD 65
Audio #1
ID : 1
Format : AC-3
Format/Info : Audio Coding 3
Mode extension : CM (complete main)
Format settings, Endianness : Big
Codec ID : 2000
Duration : 1h 38mn
Bit rate mode : Constant
Bit rate : 192 Kbps
Channel(s) : 2 channels
Channel positions : Front: L R
Sampling rate : 48.0 KHz
Bit depth : 16 bits
Compression mode : Lossy
Stream size : 136 MiB (6%)
Alignment : Split accross interleaves
Interleave, duration : 42 ms (1.00 video frame)
Interleave, preload duration : 500 ms
Audio #2
ID : 2
Format : AC-3
Format/Info : Audio Coding 3
Mode extension : CM (complete main)
Format settings, Endianness : Big
Codec ID : 2000
Duration : 1h 38mn
Bit rate mode : Constant
Bit rate : 448 Kbps
Channel(s) : 6 channels
Channel positions : Front: L C R, Side: L R, LFE
Sampling rate : 48.0 KHz
Bit depth : 16 bits
Compression mode : Lossy
Stream size : 316 MiB (14%)
Alignment : Split accross interleaves
Interleave, duration : 42 ms (1.00 video frame)
Interleave, preload duration : 500 ms
Audio #3
ID : 3
Format : AC-3
Format/Info : Audio Coding 3
Mode extension : CM (complete main)
Format settings, Endianness : Big
Codec ID : 2000
Duration : 1h 38mn
Bit rate mode : Constant
Bit rate : 448 Kbps
Channel(s) : 6 channels
Channel positions : Front: L C R, Side: L R, LFE
Sampling rate : 48.0 KHz
Bit depth : 16 bits
Compression mode : Lossy
Stream size : 316 MiB (14%)
Alignment : Split accross interleaves
Interleave, duration : 42 ms (1.00 video frame)
Interleave, preload duration : 500 ms

Скриншоты

Яндекс.Метрика
Рейтинг@Mail.ru