(New Age, Piano, Relax, Chillout) Jo Marten - Chillout & Relax - 2012, [FLAC, tracks+.cue, lossless]

 

Создавать темы 16-Авг-2014 02:28

Jo Marten - Chillout & Relax-- -Год издания: 2012
Страна: Germany
Жанр: New Age, Piano, Relax, Chillout
Продолжительность: 0:53:33
Лейбл : AVITA Media GmbH
Номер по каталогу: AA 100-385
Формат: FLAC
Тип рипа: tracks+.cue
Битрейт аудио: lossless
Наличие сканов в содержимом раздачи: да-Треклист:
01. Easy Beach Feeling (4:19)
02. Argentina (2:31)
03. So In Love (3:47)
04. Cafe Lido (5:16)
05. Only Dreaming (3:03)
06. Waves (6:04)
07. Good Moning To You (4:23)
08. Gimme The Beat Oh Lord (3:23)
09. Hands Up (3:23)
10. Sunbeams On The Water (3:40)
11. Hold Me In Your Arms Tonight (3:57)
12. Caipirinha (4:50)
13. No Return (4:57)

Log EAC

Exact Audio Copy V1.0 beta 1 from 15. November 2010
EAC extraction logfile from 28. June 2013, 14:43
Jo Marten / Chillout & Relax
Used drive  : PLEXTOR DVDR   PX-L890SA   Adapter: 1  ID: 4
Read mode               : Secure
Utilize accurate stream : Yes
Defeat audio cache      : Yes
Make use of C2 pointers : No
Read offset correction                      : 6
Overread into Lead-In and Lead-Out          : No
Fill up missing offset samples with silence : Yes
Delete leading and trailing silent blocks   : No
Null samples used in CRC calculations       : Yes
Used interface                              : Native Win32 interface for Win NT & 2000
Gap handling                                : Appended to previous track
Used output format              : User Defined Encoder
Selected bitrate                : 896 kBit/s
Quality                         : High
Add ID3 tag                     : No
Command line compressor         : C:\Program Files (x86)\Exact Audio Copy\Flac\flac.exe
Additional command line options : -8 -V -T "ARTIST=%a" -T "TITLE=%t" -T "ALBUM=%g" -T "DATE=%y" -T "TRACKNUMBER=%n" -T "GENRE=%m" -T "COMMENT=ripped by Oleandris" %s
TOC of the extracted CD
Track |   Start  |  Length  | Start sector | End sector
---------------------------------------------------------
1  |  0:00.00 |  4:18.50 |         0    |    19399
2  |  4:18.50 |  2:31.26 |     19400    |    30750
3  |  6:50.01 |  3:46.65 |     30751    |    47765
4  | 10:36.66 |  5:15.67 |     47766    |    71457
5  | 15:52.58 |  3:02.74 |     71458    |    85181
6  | 18:55.57 |  6:03.53 |     85182    |   112459
7  | 24:59.35 |  4:23.15 |    112460    |   132199
8  | 29:22.50 |  3:23.03 |    132200    |   147427
9  | 32:45.53 |  3:23.20 |    147428    |   162672
10  | 36:08.73 |  3:39.50 |    162673    |   179147
11  | 39:48.48 |  3:56.74 |    179148    |   196921
12  | 43:45.47 |  4:50.13 |    196922    |   218684
13  | 48:35.60 |  4:57.15 |    218685    |   240974
Track  1
Filename F:\ЗАГРУЗКИ\ Jo Marten - Chillout & Relax (2012)\01. Easy Beach Feeling.wav
Pre-gap length  0:00:02.00
Peak level 100.0 %
Extraction speed 3.0 X
Track quality 99.9 %
Test CRC 221C5D9E
Copy CRC 221C5D9E
Track not present in AccurateRip database
Copy OK
Track  2
Filename F:\ЗАГРУЗКИ\ Jo Marten - Chillout & Relax (2012)\02. Argentina.wav
Peak level 99.3 %
Extraction speed 3.7 X
Track quality 100.0 %
Test CRC BE4C3570
Copy CRC BE4C3570
Track not present in AccurateRip database
Copy OK
Track  3
Filename F:\ЗАГРУЗКИ\ Jo Marten - Chillout & Relax (2012)\03. So In Love.wav
Peak level 99.4 %
Extraction speed 4.2 X
Track quality 100.0 %
Test CRC 3D459EE3
Copy CRC 3D459EE3
Track not present in AccurateRip database
Copy OK
Track  4
Filename F:\ЗАГРУЗКИ\ Jo Marten - Chillout & Relax (2012)\04. Cafe Lido.wav
Pre-gap length  0:00:01.74
Peak level 98.8 %
Extraction speed 4.8 X
Track quality 100.0 %
Test CRC 808FD198
Copy CRC 808FD198
Track not present in AccurateRip database
Copy OK
Track  5
Filename F:\ЗАГРУЗКИ\ Jo Marten - Chillout & Relax (2012)\05. Only Dreaming.wav
Pre-gap length  0:00:01.74
Peak level 100.0 %
Extraction speed 4.6 X
Track quality 100.0 %
Test CRC 5169B25F
Copy CRC 5169B25F
Track not present in AccurateRip database
Copy OK
Track  6
Filename F:\ЗАГРУЗКИ\ Jo Marten - Chillout & Relax (2012)\06. Waves.wav
Peak level 100.0 %
Extraction speed 5.5 X
Track quality 100.0 %
Test CRC 27E4A086
Copy CRC 27E4A086
Track not present in AccurateRip database
Copy OK
Track  7
Filename F:\ЗАГРУЗКИ\ Jo Marten - Chillout & Relax (2012)\07. Good Moning To You.wav
Pre-gap length  0:00:01.32
Peak level 98.8 %
Extraction speed 5.7 X
Track quality 100.0 %
Test CRC 02BFC21A
Copy CRC 02BFC21A
Track not present in AccurateRip database
Copy OK
Track  8
Filename F:\ЗАГРУЗКИ\ Jo Marten - Chillout & Relax (2012)\08. Gimme The Beat Oh Lord.wav
Pre-gap length  0:00:01.74
Peak level 100.0 %
Extraction speed 5.7 X
Track quality 100.0 %
Test CRC C93775CA
Copy CRC C93775CA
Track not present in AccurateRip database
Copy OK
Track  9
Filename F:\ЗАГРУЗКИ\ Jo Marten - Chillout & Relax (2012)\09. Hands Up.wav
Pre-gap length  0:00:01.74
Peak level 100.0 %
Extraction speed 5.8 X
Track quality 100.0 %
Test CRC EFB4568F
Copy CRC EFB4568F
Track not present in AccurateRip database
Copy OK
Track 10
Filename F:\ЗАГРУЗКИ\ Jo Marten - Chillout & Relax (2012)\10. Sunbeams On The Water.wav
Pre-gap length  0:00:01.74
Peak level 98.8 %
Extraction speed 6.1 X
Track quality 100.0 %
Test CRC 3DB94BC1
Copy CRC 3DB94BC1
Track not present in AccurateRip database
Copy OK
Track 11
Filename F:\ЗАГРУЗКИ\ Jo Marten - Chillout & Relax (2012)\11. Hold Me In Your Arms Tonight.wav
Pre-gap length  0:00:01.74
Peak level 100.0 %
Extraction speed 6.4 X
Track quality 100.0 %
Test CRC 33308368
Copy CRC 33308368
Track not present in AccurateRip database
Copy OK
Track 12
Filename F:\ЗАГРУЗКИ\ Jo Marten - Chillout & Relax (2012)\12. Caipirinha.wav
Pre-gap length  0:00:01.74
Peak level 100.0 %
Extraction speed 6.8 X
Track quality 100.0 %
Test CRC 2537681C
Copy CRC 2537681C
Track not present in AccurateRip database
Copy OK
Track 13
Filename F:\ЗАГРУЗКИ\ Jo Marten - Chillout & Relax (2012)\13. No Return.wav
Pre-gap length  0:00:01.74
Peak level 99.9 %
Extraction speed 5.8 X
Track quality 99.9 %
Test CRC D676B51C
Copy CRC D676B51C
Track not present in AccurateRip database
Copy OK
None of the tracks are present in the AccurateRip database
No errors occurred
End of status report
==== Log checksum 97C0469906A9CF8858DEBB988258F063494096D1C7BAAABBD4542B24FB5BE8B5 ====

Log Cue

REM GENRE "New Age"
REM DATE 2012
REM DISCID AC0C8D0D
REM COMMENT "ExactAudioCopy v1.0b1"
PERFORMER "Jo Marten"
TITLE "Chillout & Relax"
FILE "01. Easy Beach Feeling.wav" WAVE
TRACK 01 AUDIO
TITLE "Easy Beach Feeling"
PERFORMER "Jo Marten"
INDEX 01 00:00:00
FILE "02. Argentina.wav" WAVE
TRACK 02 AUDIO
TITLE "Argentina"
PERFORMER "Jo Marten"
INDEX 01 00:00:00
FILE "03. So In Love.wav" WAVE
TRACK 03 AUDIO
TITLE "So In Love"
PERFORMER "Jo Marten"
INDEX 01 00:00:00
TRACK 04 AUDIO
TITLE "Cafe Lido"
PERFORMER "Jo Marten"
INDEX 00 03:44:66
FILE "04. Cafe Lido.wav" WAVE
INDEX 01 00:00:00
TRACK 05 AUDIO
TITLE "Only Dreaming"
PERFORMER "Jo Marten"
INDEX 00 05:13:68
FILE "05. Only Dreaming.wav" WAVE
INDEX 01 00:00:00
FILE "06. Waves.wav" WAVE
TRACK 06 AUDIO
TITLE "Waves"
PERFORMER "Jo Marten"
INDEX 01 00:00:00
TRACK 07 AUDIO
TITLE "Good Moning To You"
PERFORMER "Jo Marten"
INDEX 00 06:02:21
FILE "07. Good Moning To You.wav" WAVE
INDEX 01 00:00:00
TRACK 08 AUDIO
TITLE "Gimme The Beat Oh Lord"
PERFORMER "Jo Marten"
INDEX 00 04:21:16
FILE "08. Gimme The Beat Oh Lord.wav" WAVE
INDEX 01 00:00:00
TRACK 09 AUDIO
TITLE "Hands Up"
PERFORMER "Jo Marten"
INDEX 00 03:21:04
FILE "09. Hands Up.wav" WAVE
INDEX 01 00:00:00
TRACK 10 AUDIO
TITLE "Sunbeams On The Water"
PERFORMER "Jo Marten"
INDEX 00 03:21:21
FILE "10. Sunbeams On The Water.wav" WAVE
INDEX 01 00:00:00
TRACK 11 AUDIO
TITLE "Hold Me In Your Arms Tonight"
PERFORMER "Jo Marten"
INDEX 00 03:37:51
FILE "11. Hold Me In Your Arms Tonight.wav" WAVE
INDEX 01 00:00:00
TRACK 12 AUDIO
TITLE "Caipirinha"
PERFORMER "Jo Marten"
INDEX 00 03:55:00
FILE "12. Caipirinha.wav" WAVE
INDEX 01 00:00:00
TRACK 13 AUDIO
TITLE "No Return"
PERFORMER "Jo Marten"
INDEX 00 04:48:14
FILE "13. No Return.wav" WAVE
INDEX 01 00:00:00
-
Яндекс.Метрика
Рейтинг@Mail.ru