Смешанные / Blended (Фрэнк Корачи / Frank Coraci) [2014 г., Комедия, BDRip, 720p] Dub (iTunes) + Original (Eng)

 

Создавать темы 16-Авг-2014 02:02

-Смешанные / Blended- Производство: США / Warner Bros. Pictures, Gulfstream Pictures, Happy Madison Productions
Год выпуска: 2014 г.
Жанр: Комедия
Продолжительность: 01:57:13
Мировая премьера: 22 мая 2014
Российская премьера: 19 июня 2014, «Каро-Премьер»
Дата выхода DVD: 28 августа 2014, «CP Дистрибуция»
Дата выхода Blu-Ray: 28 августа 2014, «CP Дистрибуция»
Перевод: Профессиональный (полное дублирование) [iTunes]
Оригинальный аудиопоток: английский-Режиссер: Фрэнк Корачи / Frank Coraci
В ролях: Адам Сэндлер, Дрю Бэрримор, Кевин Нилон, Терри Крюс, Венди МакЛендон-Кови, Эмма Фурманн, Белла Торн, Брэкстон Бэкхам, Аливия Элин Линд, Джоэл МакХэйл-Описание: После неудачного свидания вслепую мужчина и женщина оказываются застрявшими вместе на семейном курорте…- -Качество видео: BDRip
Контейнер: MKV
Стандарт разрешения: 720p
Видео кодек: H.264
Аудио кодек: AC3 / DTS
Видео: 1280x688 (1.85:1), 5 160 Kbps, 23.976 fps, 0.244 bit/pix
Аудио: AC3, 48.0 KHz, 6 ch, 384 Kbps [RUS]
Аудио #2: DTS, 48.0 KHz, 6 ch, 1510 Kbps [ENG]
Cубтитры: отсутствуют

Media Info

General
Unique ID : 214669189237333249570170743664883486217 (0xA17FC82F1DFF221A90BC3BDE184F4E09)
Complete name : D:\Blended.2014.BDRip.720p.mkv
Format : Matroska
Format version : Version 4 / Version 2
File size : 5.78 GiB
Duration : 1h 57mn
Overall bit rate : 7 054 Kbps
Encoded date : UTC 2014-08-13 19:13:15
Writing application : mkvmerge v7.0.0 ('Where We Going') 64bit built on Jun 9 2014 15:16:27
Writing library : libebml v1.3.0 + libmatroska v1.4.1
Video
ID : 1
Format : AVC
Format/Info : Advanced Video Codec
Format profile : [email protected]
Format settings, CABAC : Yes
Format settings, ReFrames : 5 frames
Codec ID : V_MPEG4/ISO/AVC
Duration : 1h 57mn
Bit rate : 5 160 Kbps
Width : 1 280 pixels
Height : 688 pixels
Display aspect ratio : 1.85:1
Frame rate mode : Constant
Frame rate : 23.976 fps
Color space : YUV
Chroma subsampling : 4:2:0
Bit depth : 8 bits
Scan type : Progressive
Bits/(Pixel*Frame) : 0.244
Stream size : 4.11 GiB (71%)
Writing library : x264 core 142 r2431 ac76440
Encoding settings : cabac=1 / ref=5 / deblock=1:0:0 / analyse=0x3:0x133 / me=umh / subme=7 / psy=1 / psy_rd=1.00:0.00 / mixed_ref=1 / me_range=16 / chroma_me=1 / trellis=1 / 8x8dct=1 / cqm=0 / deadzone=21,11 / fast_pskip=0 / chroma_qp_offset=-2 / threads=18 / lookahead_threads=3 / sliced_threads=0 / nr=0 / decimate=1 / interlaced=0 / bluray_compat=0 / constrained_intra=0 / bframes=3 / b_pyramid=2 / b_adapt=1 / b_bias=0 / direct=1 / weightb=1 / open_gop=0 / weightp=2 / keyint=250 / keyint_min=23 / scenecut=40 / intra_refresh=0 / rc_lookahead=40 / rc=2pass / mbtree=1 / bitrate=5160 / ratetol=1.0 / qcomp=0.60 / qpmin=0 / qpmax=69 / qpstep=4 / cplxblur=20.0 / qblur=0.5 / ip_ratio=1.40 / aq=1:1.00
Language : English
Default : Yes
Forced : No
Audio #1
ID : 2
Format : AC-3
Format/Info : Audio Coding 3
Mode extension : CM (complete main)
Format settings, Endianness : Big
Codec ID : A_AC3
Duration : 1h 57mn
Bit rate mode : Constant
Bit rate : 384 Kbps
Channel(s) : 6 channels
Channel positions : Front: L C R, Side: L R, LFE
Sampling rate : 48.0 KHz
Bit depth : 16 bits
Compression mode : Lossy
Stream size : 322 MiB (5%)
Default : Yes
Forced : No
Audio #2
ID : 3
Format : DTS
Format/Info : Digital Theater Systems
Mode : 16
Format settings, Endianness : Big
Codec ID : A_DTS
Duration : 1h 57mn
Bit rate mode : Constant
Bit rate : 1 509 Kbps
Channel(s) : 6 channels
Channel positions : Front: L C R, Side: L R, LFE
Sampling rate : 48.0 KHz
Bit depth : 24 bits
Compression mode : Lossy
Stream size : 1.24 GiB (21%)
Language : English
Default : No
Forced : No
Menu
00:00:00.000 : en:00:00:00.000
00:10:32.715 : en:00:10:32.715
00:21:16.150 : en:00:21:16.150
00:32:56.433 : en:00:32:56.433
00:42:23.624 : en:00:42:23.624
00:49:49.195 : en:00:49:49.195
00:58:11.822 : en:00:58:11.822
01:10:44.782 : en:01:10:44.782
01:19:45.406 : en:01:19:45.406
01:33:10.293 : en:01:33:10.293
01:41:25.246 : en:01:41:25.246
01:50:36.046 : en:01:50:36.046

Скриншоты

Яндекс.Метрика
Рейтинг@Mail.ru