Остаться В Живых / LOST / Сезон: 2 / Серии: 26-49 (155) (Джек Бендер, Стивен Уильямс / Jack Bender, Stephen Williams) [2005 г., фантастика, триллер, драма, приключения, детектив, BDRemux, 1080p] MVODub [Первый канал] + Original (Eng) + Sub (Rus, Eng)

 

Создавать темы 16-Авг-2014 01:50

-Остаться в живых / LOST
(2 сезон)
-- Производство: США
Жанр: фантастика, триллер, драма, приключения, детектив
Год выпуска: 2005 г.
Продолжительность : 24 х ~00:43:00
Мировая премьера: 22 сентября 2004
Российская премьера: 10 июля 2005
Перевод: Профессиональный (многоголосый, закадровый) [Tycoon]
Перевод 2: Профессиональный (полное дублирование) [Первый Канал]
Оригинальный аудиопоток: английский
Режиссер: Джек Бендер, Стивен Уильямс / Jack Bender, Stephen Williams-В ролях: Эмили Де Равин, Хорхе Гарсиа, Джош Холлоуэй, Дэниэл Дае Ким, Юн-жин Ким, Эванджелин Лилли, Доминик Монахэн, Терри О`Куин, Нэвин Эндрюс, Мэттью Фокс, Харольд Периньо мл., Мэгги Грэйс, Майкл Эмерсон, Малкольм Дэвид Келли, Адеуэйл Акиннуйе-Агбайе, Йен Сомерхалдер, Генри Йен Кусик, Мишель Родригез, Мэдисон, Элизабет Митчел, Синтия Уэтрос-Описание: Авиалайнер совершал полет над Тихим океаном и рухнул на один из его островов. С этой минуты остаться в живых станет целью для 48 уцелевших пассажиров. В экстремальной ситуации человек открывается таким, каким его раньше никто не знал. Кажется, все оказываются в общей беде. Но кто-то паникует, а кто-то обнаруживает в себе качества лидера, чтобы повести оставшихся за собой. Идти вперед — значит выжить. Поддаться общему настроению, допустить сомнения в свою душу — означает погубить не только себя, но и всех остальных. Положение уцелевших усугубляет таинственный остров. Жертвы авиакатастрофы должны победить все опасности, которыми это местечко в Тихом океане пытается их погубить. Остров расставляет для спутников опасные ловушки, тот кто не может справиться — погибает.
- -Качество видео: BDRemux
Контейнер: MKV
Стандарт разрешения: 1080p
Видео кодек: H.264/AVC
Аудио кодек: AC3, DTS
Видео: 1920х1080, 23.976 fps, ~21.5 Mbps avg
Аудио: (Rus) AC3, 6 ch (Front: L C R, Side: L R, LFE), 48 kHz, ~448.00 kbps avg
Аудио #2: (Rus) AC3, 6 ch (Front: L C R, Side: L R, LFE), 48 kHz, ~448.00 kbps avg
Аудио #3: (Eng) DTS, 6 ch (Front: L C R, Side: L R, LFE), 48 kHz, ~1510 kbps
Cубтитры: русские, английские

Список эпизодов

Эпизод 01. Man of Science, Man of Faith / Человек науки, человек веры • [Джек]
Эпизод 02. Adrift / По течению • [Майкл]
Эпизод 03. Orientatio / Ориентирование • [Локк]
Эпизод 04. Everybody Hates Hugo / Все ненавидят Хёрли • [Херли]
Эпизод 05. ... And Found / ... И обретённое • [Сун]
Эпизод 06. Abandoned / Покинутая • [Шенон]
Эпизод 07. The Other 48 Days / Другие 48 дней • [нет]
Эпизод 08. Collision / Столкновение • [Ана Люсия]
Эпизод 09. What Kate Did / Что сделала Кейт • [Кейт]
Эпизод 10. The 23rd Psalm / 23-й псалом • [Эко]
Эпизод 11. The Hunting Party / Отряд охотников • [Джек]
Эпизод 12. Fire+Water / Огонь + вода • [Чарли]
Эпизод 13. The Long Con / Крупная афера • [Сойер]
Эпизод 14. One of Them / Один из них • [Саид]
Эпизод 15. Maternity Leave / Декретный отпуск • [Клер]
Эпизод 16. The Whole Truth / Вся правда • [Джин]
Эпизод 17. Lockdown / Взаперти • [Локк]
Эпизод 18. Dave / Дэйв • [Хёрли]
Эпизод 19. S.O.S. / C.O.C. • [Бернард/Роуз]
Эпизод 20. Two For The Road / Дорога для двоих • [Анна Люсия]
Эпизод 21. Question Mark / Знак вопроса • [Эко]
Эпизод 22. Three Minutes / Три минуты • [Майкл]
Эпизод 23. Live Together, Die Alone / Живём вместе, умираем поодиночке • [Десмонд] (Часть 1)
Эпизод 24. Live Together, Die Alone / Живём вместе, умираем поодиночке • [Десмонд] (Часть 2)

Media Info

General
Complete name                    : J:\Uploads\LOST BD-Remux\LOST - Season 02 (2006)[BDRemux]\Lost.S02E01.1080p.BluRay.Remux.mkv
Format                           : Matroska
File size                        : 7.37 GiB
Duration                         : 43mn 17 sec
Overall bit rate                 : 22.6 Mbps
Encoded date                     : UTC 2010-12-23 10:59:40
Writing application              : mkvmerge v3.2.0 ('Beginnings') built on Feb 12 2010 16:46:17
Writing library                  : libebml v0.7.9 + libmatroska v0.8.1
Video
ID                               : 1
Format                           : AVC
Format/Info                      : Advanced Video Codec
Format profile                   : [email protected]
Format settings, CABAC           : Yes
Format settings, ReFrames        : 2 frames
Muxing mode                      : Container [email protected]
Codec ID                         : V_MPEG4/ISO/AVC
Duration                         : 43mn 17 sec
Bit rate mode                    : Variable
Bit rate                         : 21. 0 Mbps
Width                            : 1 920 pixels
Height                           : 1 080 pixels
Display aspect ratio             : 16:9
Frame rate                       : 23.976 fps
Color space                      : YUV
Chroma subsampling               : 4:2:0
Bit depth                        : 8 bits
Scan type                        : Progressive
Bits/(Pixel*Frame)               : 0.161
Stream size                      : 5.56 GiB (75%)
Language                         : English
Audio #1
ID                               : 2
Format                           : AC-3
Format/Info                      : Audio Coding 3
Mode extension                   : CM (complete main)
Codec ID                         : A_AC3
Duration                         : 43mn 17 sec
Bit rate mode                    : Constant
Bit rate                         : 448 Kbps
Channel(s)                       : 6 channels
Channel positions                : Front: L C R, Side: L R, LFE
Sampling rate                    : 48.0 KHz
Bit depth                        : 16 bits
Video delay                      : 4ms
Stream size                      : 318 MiB (4%)
Title                            : DD 5.1 @ Tycoon Studio
Language                         : Russian
Audio #2
ID                               : 3
Format                           : AC-3
Format/Info                      : Audio Coding 3
Mode extension                   : CM (complete main)
Codec ID                         : A_AC3
Duration                         : 43mn 17 sec
Bit rate mode                    : Constant
Bit rate                         : 448 Kbps
Channel(s)                       : 6 channels
Channel positions                : Front: L C R, Side: L R, LFE
Sampling rate                    : 48.0 KHz
Bit depth                        : 16 bits
Video delay                      : 2ms
Stream size                      : 318 MiB (4%)
Title                            : DD 5.1 @ Channel One
Language                         : Russian
Audio #3
ID                               : 4
Format                           : DTS
Format/Info                      : Digital Theater Systems
Codec ID                         : A_DTS
Duration                         : 43mn 17 sec
Bit rate mode                    : Constant
Bit rate                         : 1 510 Kbps
Channel(s)                       : 6 channels
Channel positions                : Front: L C R, Side: L R, LFE
Sampling rate                    : 48.0 KHz
Bit depth                        : 24 bits
Stream size                      : 1.05 GiB (14%)
Title                            : DTS 5.1 @ Core
Language                         : English
Text #1
ID                               : 5
Format                           : ASS
Codec ID                         : S_TEXT/ASS
Codec ID/Info                    : Advanced Sub Station Alpha
Title                            : Russian @ Forced ASS
Language                         : Russian
Text #2
ID                               : 6
Format                           : ASS
Codec ID                         : S_TEXT/ASS
Codec ID/Info                    : Advanced Sub Station Alpha
Title                            : Russian @ ASS
Language                         : Russian
Text #3
ID                               : 7
Format                           : ASS
Codec ID                         : S_TEXT/ASS
Codec ID/Info                    : Advanced Sub Station Alpha
Title                            : English @ ASS
Language                         : English

Скриншоты

Яндекс.Метрика
Рейтинг@Mail.ru