Уилфред / Wilfred (Сезон 4 / Серии: 8 из 10) (Рэндолл Айнхорн / Randall Einhorn, ...) [2014 г., Черная комедия, ситком, ... WEB-DLRip 720p] DVO (Кубик в Кубе) + Original (Eng) [обновляемая]

 

Создавать темы 13-Авг-2014 15:48

Уилфред / Wilfred- Русское название: Уилфред
Оригинальное название: Wilfred
Страна: США
Год выпуска: 2014
Жанр: Черная комедия, ситком, ...-Релиз: Студия
Перевод: Двухголосый закадровый, профессиональный
Оригинальный аудиопоток: английский-Автор перевода: Кубик в Кубе-Премьера (мир): 23 июня 2011, ...
Премьера (РФ): 27 августа 2012-Режиссер: Рэндолл Айнхорн / Randall Einhorn, Виктор Нелли мл. / Victor Nelli Jr.
В главных ролях: Элайджа Вуд, Джейсон Гэнн, Фиона Габелманн, Дориан Браун, Эл Сапьенза, Рэйчел Стерлинг, Марк Энтони Лопез, Мэттью Каминский, ...-Описание фильма:
Сюжет строится вокруг молодого человека по имени Райан, который ухаживает за девушкой — хозяйкой пса по кличке Уилфред. Пес и молодой человек не нравятся друг другу с первого взгляда. Дело осложняется тем, что вместо собаки Райан видит человека в собачьем костюме, который с ним разговаривает.-Сезон: 4
Серии: 8 из 10 серий
Продолжительность: ~ 00:21:00 мин серия-Качество видео: WEB-DLRip 720p
Формат: MKV
Видеокодек: AVC ([email protected])
Аудиокодек: AC-3
Видео: AVC at 4053 Кбит/сек: 1280 x 720 (1.778) at 23.976 fps
Аудио Rus: AC-3 at 384 Кбит/сек: 6 каналов, 48,0 КГц |Кубик в Кубе|
Аудио Eng: AC-3 at 384 Кбит/сек: 6 каналов, 48,0 КГц |Original|
- -

Список серий:

  • Искупление (Amends)
  • Последствия (Consequences)
  • Лояльность (Loyalty)
  • Ответы (Answers)
  • Вперед (Forward)
  • Образцы (Patterns)
  • Ответственность (Responsibility)
  • Мужество (Courage)


  • (Resistance)

  • (Happiness)
-

MediaInfo:

Общее
Уникальный идентификатор                 : 235452329287374509268507512431285006951 (0xB1227819E3779FE9A33D7D3278A67267)
Полное имя                               : E:\_Сериалы\_Сериалы\Уилфред\Wilfred.S04.WEB-DL.720p.CasStudioTV\Wilfred.S04E01.WEB-DL.720p.CasStudioTV.mkv
Формат                                   : Matroska
Версия формата                           : Version 4 / Version 2
Размер файла                             : 835 Мбайт
Продолжительность                        : 23 м.
Общий поток                              : 4919 Кбит/сек
Дата кодирования                         : UTC 2014-06-29 16:18:36
Программа кодирования                    : mkvmerge v6.6.0 ('The Edge Of The In Between') built on Dec  1 2013 17:55:00
Библиотека кодирования                   : libebml v1.3.0 + libmatroska v1.4.1
Обложка                                  : Yes
Видео
Идентификатор                            : 1
Формат                                   : AVC
Формат/Информация                        : Advanced Video Codec
Профиль формата                          : [email protected]
Параметр CABAC формата                   : Нет
Параметр ReFrames формата                : 2 кадра
Идентификатор кодека                     : V_MPEG4/ISO/AVC
Продолжительность                        : 23 м.
Битрейт                                  : 4053 Кбит/сек
Ширина                                   : 1280 пикселей
Высота                                   : 720 пикселей
Соотношение сторон                       : 16:9
Режим частоты кадров                     : Постоянный
Частота кадров                           : 23,976 кадра/сек
Цветовое пространство                    : YUV
Субдискретизация насыщенности            : 4:2:0
Битовая глубина                          : 8 бит
Тип развёртки                            : Прогрессивная
Бит/(Пиксели*Кадры)                      : 0.183
Размер потока                            : 688 Мбайт (82%)
Язык                                     : English
Default                                  : Да
Forced                                   : Нет
Основные цвета                           : BT.709
Характеристики трансфера                 : BT.709
Коэффициенты матрицы                     : BT.709
Аудио #1
Идентификатор                            : 2
Формат                                   : AC-3
Формат/Информация                        : Audio Coding 3
Расширение режима                        : CM (complete main)
Параметр Endianness формата              : Big
Идентификатор кодека                     : A_AC3
Продолжительность                        : 23 м.
Вид битрейта                             : Постоянный
Битрейт                                  : 384 Кбит/сек
Каналы                                   : 6 каналов
Расположение каналов                     : Front: L C R, Side: L R, LFE
Частота                                  : 48,0 КГц
Битовая глубина                          : 16 бит
Метод сжатия                             : С потерями
Размер потока                            : 65,2 Мбайт (8%)
Заголовок                                : KvK
Язык                                     : Russian
Default                                  : Да
Forced                                   : Нет
Аудио #2
Идентификатор                            : 3
Формат                                   : AC-3
Формат/Информация                        : Audio Coding 3
Расширение режима                        : CM (complete main)
Параметр Endianness формата              : Big
Идентификатор кодека                     : A_AC3
Продолжительность                        : 23 м.
Вид битрейта                             : Постоянный
Битрейт                                  : 384 Кбит/сек
Каналы                                   : 6 каналов
Расположение каналов                     : Front: L C R, Side: L R, LFE
Частота                                  : 48,0 КГц
Битовая глубина                          : 16 бит
Метод сжатия                             : С потерями
Размер потока                            : 65,2 Мбайт (8%)
Заголовок                                : original
Язык                                     : English
Default                                  : Нет
Forced                                   : Нет
Текст
Идентификатор                            : 4
Формат                                   : UTF-8
Идентификатор кодека                     : S_TEXT/UTF8
Идентификатор кодека/Информация          : UTF-8 Plain Text
Заголовок                                : subtitles
Язык                                     : English
Default                                  : Нет
Forced                                   : Нет
-

Скриншот c названием фильма

-Скриншоты:
-

Еще

-

Внимание! Раздача ведётся путём добавления новых серий!

Внимание! Раздача ведётся путём добавления новых серий; при каждом добавлении создаётся новый торрент. Чтобы начать докачку новой серии, пользователям необходимо сделать следующее:
(1) остановить скачивание,
(2) удалить старый торрент у себя из клиента (старые серии удалять не надо),
(3) скачать новый торрент и запустить его у себя в клиенте вместо старого, при этом указать клиенту путь в старую папку куда и должно происходить скачивание новых серий.
Ваш клиент при этом должен произвести хеширование (проверку) старой папки (если не производит сам - помогите ему сделать это), и будет докачивать только те серии которых у вас ещё нет. Старые серии при этом не удаляются, а продолжают раздаваться!
Eсли вы уже удалили старые серии, то предотвратить повторную закачку старых серий можно, отжав галочку в соответствующих местах при запуске нового торрента.
-Добавлена восьмая серия четвертого сезона
Яндекс.Метрика
Рейтинг@Mail.ru