Аллергия. Реквием по жизни? (Александр Евсюков) [2013 г., Документальный, Студия: ВГТРК, HDTV, 1080i]

 

Создавать темы 13-Авг-2014 07:49

-Аллергия. Реквием по жизни?-- Производство: Россия
Жанр: Документальный, Студия: ВГТРК
Год выпуска: 2013 г.
Продолжительность: 00:52:00
Перевод: Не требуется
Режиссер: Александр Евсюков-Описание: Описание: Большинство считают аллергию вполне безобидным недугом. Насморк, слезы, кожный зуд, покашливание – вот и все, что знают о ней многие из нас. Люди не подозревают, что аллергия убивает. И убивает внезапно. Она приходит, как незваная гостья, и лишь дожидается момента, чтобы нанести свой коварный удар.
В каждую историческую эпоху у аллергии были свои тайные агенты. Во времена Гиппократа люди часто страдали непереносимостью сыра. В Средневековье Европу охватила вспышка аллергии на клубнику и аромат роз. В XIX веке появились первые поезда и первые жертвы паровозного дыма и копоти. Однако настоящий аллергический бум пришелся на вторую половину XX и начало XXI веков. Человек выпустил на свет из пробирки миллионы ранее неизвестных молекул. И многие из этих веществ стали причиной чьей-то аллергии и, возможно, смерти. Более того, аллергию начало вызывать даже то, у чего нет материи.
Неужели нет способа защититься от аллергии? Неужели нам суждено жить в вечном страхе перед ней, не зная, кого завтра она выберет в качестве жертвы? И если аллергия – не божественное проклятие, не генетическое заболевание и, тем более, не следствие чрезмерной гигиены, то в чем же причина ее возникновения?
Недавно появилось предположение ученых, что аллергия – это не болезнь, а, прежде всего, признак очень сильного иммунитета. Может быть аллергия – это эволюционное преимущество, и именно по этому признаку природа ведет сегодня естественный отбор?
Если сопоставить все факты, можно предположить, что аллергия дана человечеству для борьбы с раком и новыми опасными заболеваниями.
Аллергия. Проклятие или сбой в генетической программе? Месть природы или последствия цивилизованного образа жизни? Механизм естественного отбора или защита человечества от чего-то более опасного? Пока вопросов гораздо больше, чем ответов.-
Качество видео: HDTV
Контейнер: TS
Стандарт разрешения: 1080i
Видео: AVC, 1920х1080, 16:9, 7272 kbps, 25 fps
Аудио: MPEG Audio, 224 kbps, 2 ch, 8 kHz
Cубтитры: отсутствуют

Media Info

Общее
Идентификатор : 16 (0x10)
Полное имя : Allergy. Requiem for life.ts
Формат : MPEG-TS
Размер файла : 2,87 Гбайт
Продолжительность : 52 м.
Режим общего битрейта : Переменный
Общий поток : 7888 Кбит/сек
Видео
Идентификатор : 1901 (0x76D)
Идентификатор меню : 901 (0x385)
Формат : AVC
Формат/Информация : Advanced Video Codec
Профиль формата : [email protected]
Параметр CABAC формата : Да
Параметр ReFrames формата : 3 кадра
Идентификатор кодека : 27
Продолжительность : 52 м.
Битрейт : 7272 Кбит/сек
Ширина : 1920 пикселей
Высота : 1080 пикселей
Соотношение сторон : 16:9
Частота кадров : 25,000 кадров/сек
Стандарт вещания : PAL
Цветовое пространство : YUV
Субдискретизация насыщенности : 4:2:0
Битовая глубина : 8 бит
Тип развёртки : Чересстрочная
Порядок развёртки : Верхнее поле первое
Бит/(Пиксели*Кадры) : 0.140
Размер потока : 2,65 Гбайт (92%)
Основные цвета : BT.709
Характеристики трансфера : BT.709
Коэффициенты матрицы : BT.709
Аудио
Идентификатор : 2901 (0xB55)
Идентификатор меню : 901 (0x385)
Формат : MPEG Audio
Версия формата : Version 1
Профиль формата : Layer 2
Идентификатор кодека : 4
Продолжительность : 52 м.
Вид битрейта : Постоянный
Битрейт : 224 Кбит/сек
Каналы : 2 канала
Частота : 48,0 КГц
Метод сжатия : С потерями
Задержка видео : 101 мс.
Размер потока : 83,6 Мбайт (3%)
Язык : std
Язык, дополнительно : Clean effects

Скриншот c названием фильма

Скриншоты

Яндекс.Метрика
Рейтинг@Mail.ru