[ Сегодня на трекере фрилич! Идет свободное скачивание без начисления Download ]

(New Age, Piano Solo) David Tolk - Stories in the Sky - 1996, FLAC (tracks+.cue), lossless

 

Создавать темы 01-Ноя-2013 08:21

David Tolk - Stories in the Sky
Жанр: New Age, Piano Solo
Год издания: 1996
Аудиокодек: FLAC (*.flac)
Тип рипа: tracks+.cue
Битрейт аудио: lossless
Продолжительность: 00:45:00
Источник (релизер): net
Наличие сканов в содержимом раздачи: нет
Треклист:
01. Stories in the Sky
02. Cranberry Island
03. In Perfect Silence
04. Old Hickory
05. Reflection
06. Journey by Sea
07. Whose Woods These Are
08. Between the Lakes
09. Prayer of Thanksgiving
10. Pretty Girl

Audiochecker

AUDIOCHECKER v2.0 beta (build 457) - by Dester - [email protected]
~~~~~~~~~~~~~~~~~~~~~~~~~~~~~~~~~~
-=== НЕ РЕДАКТИРУЙТЕ ЭТОТ ФАЙЛ! ===-
Путь: ...\David Tolk - Stories in the Sky
01 -=- 01 - Stories in the Sky.flac -=- CDDA (100%)
02 -=- 02 - Cranberry Island.flac -=- MPEG (99%)
03 -=- 03 - In Perfect Silence.flac -=- MPEG (89%)
04 -=- 04 - Old Hickory.flac -=- MPEG (92%)
05 -=- 05 - Reflection.flac -=- CDDA (100%)
06 -=- 06 - Journey By Sea.flac -=- MPEG (90%)
07 -=- 07 - Whose Woods These Are.flac -=- CDDA (99%)
08 -=- 08 - Between the Lakes.flac -=- MPEG (100%)
09 -=- 09 - Prayer of Thanksgiving.flac -=- CDDA (54%)
10 -=- 10 - Pretty Girl.flac -=- MPEG (80%)
Сводка 40,30% CDDA
15674084

Содержание индексной карты (.CUE)

REM GENRE "New Age"
REM DATE 1997
REM DISCID 760A690A
REM COMMENT "ExactAudioCopy v1.0b3"
PERFORMER "David Tolk"
TITLE "Stories in the Sky"
FILE "01 - Stories in the Sky.wav" WAVE
TRACK 01 AUDIO
TITLE "Stories in the Sky"
PERFORMER "David Tolk"
INDEX 01 00:00:00
FILE "02 - Cranberry Island.wav" WAVE
TRACK 02 AUDIO
TITLE "Cranberry Island"
PERFORMER "David Tolk"
INDEX 01 00:00:00
FILE "03 - In Perfect Silence.wav" WAVE
TRACK 03 AUDIO
TITLE "In Perfect Silence"
PERFORMER "David Tolk"
INDEX 01 00:00:00
FILE "04 - Old Hickory.wav" WAVE
TRACK 04 AUDIO
TITLE "Old Hickory"
PERFORMER "David Tolk"
INDEX 01 00:00:00
FILE "05 - Reflection.wav" WAVE
TRACK 05 AUDIO
TITLE "Reflection"
PERFORMER "David Tolk"
INDEX 01 00:00:00
FILE "06 - Journey By Sea.wav" WAVE
TRACK 06 AUDIO
TITLE "Journey By Sea"
PERFORMER "David Tolk"
INDEX 01 00:00:00
FILE "07 - Whose Woods These Are.wav" WAVE
TRACK 07 AUDIO
TITLE "Whose Woods These Are"
PERFORMER "David Tolk"
INDEX 01 00:00:00
FILE "08 - Between the Lakes.wav" WAVE
TRACK 08 AUDIO
TITLE "Between the Lakes"
PERFORMER "David Tolk"
INDEX 01 00:00:00
FILE "09 - Prayer of Thanksgiving.wav" WAVE
TRACK 09 AUDIO
TITLE "Prayer of Thanksgiving"
PERFORMER "David Tolk"
INDEX 01 00:00:00
FILE "10 - Pretty Girl.wav" WAVE
TRACK 10 AUDIO
TITLE "Pretty Girl"
PERFORMER "David Tolk"
INDEX 01 00:00:00

Об исполнителе (группе)

http://davidtolk.com/

Об альбоме (сборнике)

Stories in the Sky, David Tolk's second new age piano CD, contains compositions based upon the subjects of nature, travel, family, and literature. As an artist seeks to capture the essence of his subjects on canvas, Tolk effectively captures images and concepts which inspire to create beautiful instrumental piano music. Tolk's piano compositions are enhanced by lush classical orchestration and melodic solos on English horn and viola.
Яндекс.Метрика
Рейтинг@Mail.ru