[ Сегодня на трекере фрилич! Идет свободное скачивание без начисления Download ]

(Ambient, Breaks, Chillout, Downtempo, Psychedelic, Trance) Sundial Aeon - Analysis - 2014 [Flac, tracks, Lossless]

 

Создавать темы 13-Авг-2014 05:50

-Sundial Aeon - Analysis--
Год издания: 2014
Лейбл: Impact Studio
Жанр: Ambient, Breaks, Chillout, Downtempo, Psychedelic, Trance
Продолжительность: 01:13:18
Формат: Flac
Битрейт аудио: Lossless
Тип рипа: tracks
Наличие сканов в содержимом раздачи: нет-Трэклист:
01. Preface (4:14)
02. Synchronicity (9:14)
03. Biotransmission (6:22)
04. Artifact 6:07)
05. Crystal Genesis (6:47)
06. Aerospace Labyrinth (Suduaya Rmx) (9:18)
07. Electric Blowing (9:23)
08. Drifting Radio Frequencies (7:14)
09. Underwater Railway Station (7:43)
10. Sleepy Tranquility (6:57)

Log EAC

Exact Audio Copy V1.0 beta 3 from 29. August 2011
EAC extraction logfile from 8. August 2014, 10:43
Sundial Aeon / Analysis
Used drive  : PIONEER DVD-RW  DVR-220L   Adapter: 1  ID: 0
Read mode               : Secure
Utilize accurate stream : Yes
Defeat audio cache      : Yes
Make use of C2 pointers : No
Read offset correction                      : 6
Overread into Lead-In and Lead-Out          : No
Fill up missing offset samples with silence : Yes
Delete leading and trailing silent blocks   : No
Null samples used in CRC calculations       : Yes
Used interface                              : Native Win32 interface for Win NT & 2000
Gap handling                                : Appended to previous track
Used output format              : User Defined Encoder
Selected bitrate                : 1024 kBit/s
Quality                         : High
Add ID3 tag                     : No
Command line compressor         : C:\Program Files\Exact Audio Copy\Flac\flac.exe
Additional command line options : -V -8 -T "Genre=%genre%" -T "Artist=%artist%" -T "Title=%title%" -T "Album=%albumtitle%" -T "Date=%year%" -T "Tracknumber=%tracknr%" -T "Comment=%comment%" %source%
TOC of the extracted CD
Track |   Start  |  Length  | Start sector | End sector
---------------------------------------------------------
1  |  0:00.00 |  4:14.30 |         0    |    19079
2  |  4:14.30 |  9:14.33 |     19080    |    60662
3  | 13:28.63 |  6:21.38 |     60663    |    89275
4  | 19:50.26 |  6:06.60 |     89276    |   116785
5  | 25:57.11 |  6:46.63 |    116786    |   147298
6  | 32:43.74 |  9:18.01 |    147299    |   189149
7  | 42:02.00 |  9:22.68 |    189150    |   231367
8  | 51:24.68 |  7:13.52 |    231368    |   263894
9  | 58:38.45 |  7:43.17 |    263895    |   298636
10  | 66:21.62 |  6:57.02 |    298637    |   329913
Track  1
Filename D:\01. Preface.wav
Pre-gap length  0:00:02.00
Peak level 99.9 %
Extraction speed 5.0 X
Track quality 100.0 %
Test CRC 8B67B1AE
Copy CRC 8B67B1AE
Track not present in AccurateRip database
Copy OK
Track  2
Filename D:\02. Synchronicity.wav
Peak level 99.9 %
Extraction speed 5.8 X
Track quality 99.9 %
Test CRC 3FF4BDE4
Copy CRC 3FF4BDE4
Track not present in AccurateRip database
Copy OK
Track  3
Filename D:\03. Biotransmission.wav
Peak level 99.9 %
Extraction speed 6.8 X
Track quality 100.0 %
Test CRC E6BFCEA3
Copy CRC E6BFCEA3
Track not present in AccurateRip database
Copy OK
Track  4
Filename D:\04. Artifact.wav
Peak level 99.4 %
Extraction speed 7.2 X
Track quality 100.0 %
Test CRC FC301FF5
Copy CRC FC301FF5
Track not present in AccurateRip database
Copy OK
Track  5
Filename D:\05. Crystal Genesis.wav
Peak level 99.9 %
Extraction speed 7.9 X
Track quality 100.0 %
Test CRC FECFC38C
Copy CRC FECFC38C
Track not present in AccurateRip database
Copy OK
Track  6
Filename D:\06. Aerospace Labyrinth (Suduaya Rmx).wav
Peak level 99.9 %
Extraction speed 8.7 X
Track quality 100.0 %
Test CRC 310B1479
Copy CRC 310B1479
Track not present in AccurateRip database
Copy OK
Track  7
Filename D:\07. Electric Blowing.wav
Peak level 99.9 %
Extraction speed 9.4 X
Track quality 100.0 %
Test CRC 432700CC
Copy CRC 432700CC
Track not present in AccurateRip database
Copy OK
Track  8
Filename D:\08. Drifting Radio Frequencies.wav
Peak level 99.9 %
Extraction speed 9.8 X
Track quality 100.0 %
Test CRC B9A0AC57
Copy CRC B9A0AC57
Track not present in AccurateRip database
Copy OK
Track  9
Filename D:\09. Underwater Railway Station.wav
Peak level 99.9 %
Extraction speed 10.4 X
Track quality 100.0 %
Test CRC DEE37509
Copy CRC DEE37509
Track not present in AccurateRip database
Copy OK
Track 10
Filename D:\10. Sleepy Tranquility.wav
Peak level 99.9 %
Extraction speed 10.0 X
Track quality 99.9 %
Test CRC DA66C3DD
Copy CRC DA66C3DD
Track not present in AccurateRip database
Copy OK
None of the tracks are present in the AccurateRip database
No errors occurred
End of status report
==== Log checksum FF60D00239AF09BE0E100BE363AA112A2F7B4080771CDCE7EA5911DB65FF4568 ====
-
Яндекс.Метрика
Рейтинг@Mail.ru