Убийственная мультипликация / Killer Toon (Ён-гён Ким) [2013, ужасы, триллер, HDRip] от BitTracker

 

Создавать темы 01-Ноя-2013 07:59

Информация о фильме
Название: Убийственная мультипликация
Оригинальное название: Killer Toon
Год выхода: 2013
Жанр: ужасы, триллер
Режиссер: Ён-гён Ким
В ролях: Ким Хён У, Хэ-хё Квон, Ли Си Ён, Ох Кван Рок, Ом Ки Чжун
О фильме:
Популярный художник комикса ужасов Чжи Юн считает, что жизнь подражает ее работам, когда ее издатель оказывается мертвым, точно так же, как девушка изобразила жертву в своем последнем комиксе. Чжи Юн попадает под подозрение, но у нее железное алиби. Тогда все решают, что смерть издателя была самоубийством или убийством подражателя. Но, когда происходит серия убийств, напоминающих комиксы Чжи Юн, детектив Ли Ки Чхоль начинает расследование и оказывается близок к страшной разгадке…

Страна: Южная Корея
Студия: CJ E&M Pictures, Filma Pictures
Продолжительность: 01:44:06
Перевод: Любительское (двухголосое) [DeadSno & den904]
Файл
Кодек: XviD
Качество: HDRip (Исх. BDRip 1080p)
Видео: 624x336 (1.86:1), 23.976 fps, XviD build 50 ~864 kbps avg, 0.17 bit/pixel
Звук: 48 kHz, MPEG Layer 3, 2 ch, ~128.00 kbps avg
Субтитры: нет
Семпл

MediaInfo

Общее
Полное имя : S:ФильмыСмертепликация. Убийственная мультипликация. 2013. HDRip. 745 (AleksSin).avi
Формат : AVI
Формат/Информация : Audio Video Interleave
Размер файла : 746 Мбайт
Продолжительность : 1 ч. 44 м.
Общий поток : 1001 Кбит/сек
Программа кодирования : VirtualDubMod 1.5.10.3 | www.virtualdub-fr.org || (build 2550/release)
Библиотека кодирования : VirtualDubMod build 2550/release
Видео
Идентификатор : 0
Формат : MPEG-4 Visual
Профиль формата : Advanced [email protected]
Параметр BVOP формата : 2
Параметр QPel формата : Нет
Параметр GMC формата : Без точки перехода
Параметр матрицы формата : Default (H.263)
Идентификатор кодека : XVID
Идентификатор кодека/Подсказка : XviD
Продолжительность : 1 ч. 44 м.
Битрейт : 864 Кбит/сек
Ширина : 624 пикс.
Высота : 336 пикс.
Соотношение сторон : 1,857
Частота кадров : 23,976 кадр/сек
Цветовое пространство : YUV
Подвыборка цветности : 4:2:0
Битовая глубина : 8 бит
Тип развёртки : Прогрессивная
Метод сжатия : С потерями
Бит/(Пиксели*Кадры) : 0.172
Размер потока : 643 Мбайт (86%)
Библиотека кодирования : XviD 1.2.1 (UTC 2008-12-04)
Аудио
Идентификатор : 1
Формат : MPEG Audio
Версия формата : Version 1
Профиль формата : Layer 3
Идентификатор кодека : 55
Идентификатор кодека/Подсказка : MP3
Продолжительность : 1 ч. 44 м.
Вид битрейта : Постоянный
Битрейт : 128 Кбит/сек
Каналы : 2 канала
Частота : 48,0 КГц
Метод сжатия : С потерями
Размер потока : 95,3 Мбайт (13%)
Выравнивание : Соединение по промежуткам
Продолжительность промежутка : 42 мс. (1,00 видеокадр)
Время предзагрузки промежутка : 504 ms
Библиотека кодирования : LAME3.99r
Настройки программы : -m s -V 4 -q 2 -lowpass 17 -b 128

Скриншоты


_________________
Подпись отключена за нарушение правил форума

Создавать темы 26-Янв-2016 23:17 (спустя 2 года 2 месяца)

Топик был перенесен из форума Зарубежные Новинки (HD*Rip/LQ, DVDRip) в форум Зарубежные Фильмы (HD*Rip/LQ, DVDRip, SATRip, VHSRip)
T_O_M
Яндекс.Метрика
Рейтинг@Mail.ru