[ Сегодня на трекере фрилич! Идет свободное скачивание без начисления Download ]

Крылышко или ножка / L'aile Ou La Cuisse (Клод Зиди) [1976 г., Комедия, BDRip 720p] MVO (RUS) + AVO (RUS, М. Латышев) + Original (FRA) + Subs (FRA)

 

Создавать темы 11-Авг-2014 16:45

--Крылышко или ножка / L'aile ou la cuisse-- Год выпуска: 1976
Страна: Франция
Жанр: Комедия
Продолжительность: 01:45:09
Перевод: Профессиональный многоголосый, авторский
Режиссер: Клод Зиди
В ролях: Луи де Фюнес, Колюш, Энн Захариас, Жюльен Гиомар, Клод Жансак, Жорж Шамара, Жан Мартен, Фернан Гио, Жерар Букарон, Антуан Марен, Ив Афонсо, Раймон Бюссьер, Филипп Бувард- Сюжет фильма:
Главный герой мсье Дюшемен — респектабельный составитель ежегодного справочника-путеводителя по ресторанам. Авторитет его книги настолько высок, что все рестораны в Париже и его окрестностях стремятся предстать на ее страницах в выгодном свете.
Это очень трудно, поскольку Дюшемен все время сам обходит все заведения, переодеваясь, чтобы оставаться не узнанным. Единственное разочарование Дюшемена — его сын, который не желает идти по стопам отца, мечтая стать клоуном в цирке…- - Качество: BDRip 720p
Контейнер: MKV
Видео: MPEG-4 AVC, 7700 Кбит/с, 1280x544, 24.000 кадр/с
Аудио #1: Русский (AC3, 2 ch, 192 Кбит/с) / Профессиональный многоголосый
Аудио #2: Русский (AC3, 2 ch, 192 Кбит/с) / Авторский одноголосый (Латышев)
Аудио #3: Французский (DTS, 2 ch, 1509 Кбит/с)
Субтитры: UTF-8 [Французские]-

Знаете ли вы, что...

В 1975 году после инфаркта Луи де Фюнес перестал сниматься. С фильмом «Крылышко или ножка» он вновь вернулся в киноиндустрию.
Сцены на фабрике по производству продуктов питания сняты на предприятии «Aire de Nemours», находящемся южнее Парижа.
Бюро Трикателя находится в Дефансе — современном деловом квартале в западной части Парижа.
Путеводитель по ресторанам «Дюшмен» является намёком на «Мишлен» — знаменитый ресторанный рейтинг.

MI

Общее
Уникальный идентификатор : 182312703596658011711157522371709068823 (0x8928264647E22556866E2EA35B816617)
Полное имя : D:Mои раздачиKrylyshko.ili.nozhka.1976.BDRip.720p-MediaClub.mkv
Формат : Matroska
Версия формата : Version 4 / Version 2
Размер файла : 7,05 Гбайт
Продолжительность : 1 ч. 45 м.
Общий поток : 9595 Кбит/сек
Название фильма : -=MediaClub-kaspr=-
Дата кодирования : UTC 2014-07-17 16:20:35
Программа кодирования : mkvmerge v7.0.0 ('Where We Going') 64bit built on Jun 9 2014 15:16:27
Библиотека кодирования : libebml v1.3.0 + libmatroska v1.4.1
DURATION : 01:44:46.333000000
NUMBER_OF_FRAMES : 1585
NUMBER_OF_BYTES : 44190
_STATISTICS_WRITING_APP : mkvmerge v7.0.0 ('Where We Going') 64bit built on Jun 9 2014 15:16:27
_STATISTICS_WRITING_DATE_UTC : 2014-07-17 16:20:35
_STATISTICS_TAGS : BPS DURATION NUMBER_OF_FRAMES NUMBER_OF_BYTES
Видео
Идентификатор : 1
Формат : AVC
Формат/Информация : Advanced Video Codec
Профиль формата : [email protected]
Параметр CABAC формата : Да
Параметр ReFrames формата : 9 кадров
Идентификатор кодека : V_MPEG4/ISO/AVC
Продолжительность : 1 ч. 45 м.
Битрейт : 7700 Кбит/сек
Ширина : 1280 пикселей
Высота : 544 пикселя
Соотношение сторон : 2,35:1
Режим частоты кадров : Постоянный
Частота кадров : 24,000 кадра/сек
Цветовое пространство : YUV
Субдискретизация насыщенности : 4:2:0
Битовая глубина : 8 бит
Тип развёртки : Прогрессивная
Бит/(Пиксели*Кадры) : 0.461
Размер потока : 5,52 Гбайт (78%)
Заголовок : -=MediaClub-kaspr=-
Библиотека кодирования : x264 core 142 r2431+42 c69a006 tMod [[email protected]:2:0 X86_64]
Настройки программы : cabac=1 / ref=9 / deblock=1:-3:-3 / analyse=0x3:0x113 / me=umh / subme=11 / psy=1 / fade_compensate=0.00 / psy_rd=1.00:0.20 / mixed_ref=1 / me_range=32 / chroma_me=1 / trellis=2 / 8x8dct=1 / cqm=0 / deadzone=21,11 / fast_pskip=0 / chroma_qp_offset=-3 / threads=12 / lookahead_threads=3 / sliced_threads=0 / nr=0 / decimate=0 / interlaced=0 / bluray_compat=0 / constrained_intra=0 / fgo=0 / bframes=12 / b_pyramid=2 / b_adapt=2 / b_bias=0 / direct=3 / weightb=1 / open_gop=0 / weightp=2 / keyint=240 / keyint_min=24 / scenecut=40 / intra_refresh=0 / rc=2pass / mbtree=0 / bitrate=7700 / ratetol=1.0 / qcomp=0.60 / qpmin=0:0:0 / qpmax=69:69:69 / qpstep=4 / cplxblur=20.0 / qblur=0.5 / ip_ratio=1.40 / pb_ratio=1.30 / aq=4:0.80 / aq-sensitivity=10.00 / aq-factor=1.00:1.00:1.00 / aq2=0 / aq3=0
Default : Да
Forced : Да
DURATION : 01:45:09.959000000
NUMBER_OF_FRAMES : 151439
NUMBER_OF_BYTES : 6072645686
_STATISTICS_WRITING_APP : mkvmerge v7.0.0 ('Where We Going') 64bit built on Jun 9 2014 15:16:27
_STATISTICS_WRITING_DATE_UTC : 2014-07-17 16:20:35
_STATISTICS_TAGS : BPS DURATION NUMBER_OF_FRAMES NUMBER_OF_BYTES
Аудио #1
Идентификатор : 2
Формат : AC-3
Формат/Информация : Audio Coding 3
Расширение режима : CM (complete main)
Параметр Endianness формата : Big
Идентификатор кодека : A_AC3
Продолжительность : 1 ч. 45 м.
Вид битрейта : Постоянный
Битрейт : 192 Кбит/сек
Каналы : 2 канала
Расположение каналов : Front: L R
Частота : 48,0 КГц
Битовая глубина : 16 бит
Метод сжатия : С потерями
Размер потока : 144 Мбайт (2%)
Заголовок : MVO
Язык : Russian
Default : Да
Forced : Да
Аудио #2
Идентификатор : 3
Формат : AC-3
Формат/Информация : Audio Coding 3
Расширение режима : CM (complete main)
Параметр Endianness формата : Big
Идентификатор кодека : A_AC3
Продолжительность : 1 ч. 45 м.
Вид битрейта : Постоянный
Битрейт : 192 Кбит/сек
Каналы : 2 канала
Расположение каналов : Front: L R
Частота : 48,0 КГц
Битовая глубина : 16 бит
Метод сжатия : С потерями
Размер потока : 144 Мбайт (2%)
Заголовок : AVO
Язык : Russian
Default : Нет
Forced : Нет
Аудио #3
Идентификатор : 4
Формат : DTS
Формат/Информация : Digital Theater Systems
Режим : 16
Параметр Endianness формата : Big
Идентификатор кодека : A_DTS
Продолжительность : 1 ч. 45 м.
Вид битрейта : Постоянный
Битрейт : 1509 Кбит/сек
Каналы : 2 канала
Расположение каналов : Front: L R
Частота : 48,0 КГц
Битовая глубина : 24 бит
Метод сжатия : С потерями
Размер потока : 1,11 Гбайт (16%)
Язык : French
Default : Нет
Forced : Нет
Текст
Идентификатор : 5
Формат : UTF-8
Идентификатор кодека : S_TEXT/UTF8
Идентификатор кодека/Информация : UTF-8 Plain Text
Язык : French
Default : Нет
Forced : Нет
Меню
00:00:00.000 : en:Chapter 01
00:07:41.541 : en:Chapter 02
00:16:24.750 : en:Chapter 03
00:25:40.666 : en:Chapter 04
00:36:44.291 : en:Chapter 05
00:42:57.708 : en:Chapter 06
00:51:04.041 : en:Chapter 07
01:02:19.875 : en:Chapter 08
01:09:50.708 : en:Chapter 09
01:17:52.125 : en:Chapter 10
01:28:56.750 : en:Chapter 11
01:35:38.500 : en:Chapter 12

Скриншоты:

Яндекс.Метрика
Рейтинг@Mail.ru