[ Сегодня на трекере фрилич! Идет свободное скачивание без начисления Download ]

Убийцы / Ассасины / The Assassins / Tong que tai (Чжао Линшан / Zhao Lin-Shan) [2012, Китай, драма, история, HDRip] AVO + DVO + original Chin Sub (rus, eng)

 

Создавать темы 10-Авг-2014 17:24

Убийцы / Ассасины / The Assassins / Tong que tai- -Страна: Китай
Жанр: драма, история
Год выпуска: 2012
Продолжительность: 01:47:07-Перевод: Авторский (одноголосый закадровый) [Ю.Сербин]
Перевод: Любительский (двухголосый закадровый) [den904 & DeadSno]-Cубтитры: русские, английские [отдельно]
Оригинальная аудиодорожка: китайский
Режиссер: Чжао Линшан / Zhao Lin-Shan
В ролях: Чоу Юнь-Фат, Лю Ифэй, Хироси Тамаки, Алек Су, Ни Янь, Рой Чунг, Дахун Ни, Не Юань, Яо Лу, Синь-Чжи Цю...
Описание:
Троецарствие — период истории Китая. В эту пору разворачиваются действия фильма. Главная фигура фильма — Цао Цао. Он уже стар, но все еще остается влиятельным человеком. Сын Цао Цао пытается занять место отца. Эта драматическая история — о военной тактике, верности и предательстве, где есть место любви и убийству.
Сэмпл: http://multi-up.com/990383
Качество видео: HDRip
Формат видео: AVI
Видео: MPEG-4 Visual at 1819 Кбит/сек; 720 x 304 (2.368) at 24.000 fps
Аудио: AC-3 at 448 Кбит/сек; 6 каналов, 48,0 КГц [AVO]
Аудио: AC-3 at 192 Кбит/сек; 2 канала, 48,0 КГц [DVO]
Аудио: AC-3 at 448 Кбит/сек; 6 каналов, 48,0 КГц [Chin]

MediaInfo

Общее
Полное имя : D:\Фильмы\Азиатские\Убийцы\The Assassins.2012.HDRip.XviD.2200MB. rip by [Assassin's Creed]\The Assassins.2012.HDRip.XviD.2200MB. rip by [Assassin's Creed].avi
Формат : AVI
Формат/Информация : Audio Video Interleave
Профиль формата : OpenDML
Размер файла : 2,19 Гбайт
Продолжительность : 1 ч. 47 м.
Общий поток : 2931 Кбит/сек
Программа кодирования : VirtualDubMod 1.5.10.2 (build 2540/release)
Библиотека кодирования : VirtualDubMod build 2540/release
Видео
Идентификатор : 0
Формат : MPEG-4 Visual
Профиль формата : Advanced [email protected]
Параметр BVOP формата : 1
Параметр QPel формата : Нет
Параметр GMC формата : Без точки перехода
Параметр матрицы формата : Default (MPEG)
Идентификатор кодека : XVID
Идентификатор кодека/Подсказка : XviD
Продолжительность : 1 ч. 47 м.
Битрейт : 1819 Кбит/сек
Ширина : 720 пикселей
Высота : 304 пикселя
Соотношение сторон : 2,35:1
Частота кадров : 24,000 кадра/сек
Цветовое пространство : YUV
Субдискретизация насыщенности : 4:2:0
Битовая глубина : 8 бит
Тип развёртки : Прогрессивная
Метод сжатия : С потерями
Бит/(Пиксели*Кадры) : 0.346
Размер потока : 1,36 Гбайт (62%)
Библиотека кодирования : XviD 1.2.1 (UTC 2008-12-04)
Аудио #1
Идентификатор : 1
Формат : AC-3
Формат/Информация : Audio Coding 3
Расширение режима : CM (complete main)
Параметр Endianness формата : Big
Идентификатор кодека : 2000
Продолжительность : 1 ч. 47 м.
Вид битрейта : Постоянный
Битрейт : 448 Кбит/сек
Каналы : 6 каналов
Расположение каналов : Front: L C R, Side: L R, LFE
Частота : 48,0 КГц
Битовая глубина : 16 бит
Метод сжатия : С потерями
Размер потока : 343 Мбайт (15%)
Выравнивание : Разделение по промежуткам
Продолжительность промежутка : 42 мс. (1,00 видеокадр)
Время предзагрузки промежутка : 500 мс.
Аудио #2
Идентификатор : 2
Формат : AC-3
Формат/Информация : Audio Coding 3
Расширение режима : CM (complete main)
Параметр Endianness формата : Big
Идентификатор кодека : 2000
Продолжительность : 1 ч. 47 м.
Вид битрейта : Постоянный
Битрейт : 192 Кбит/сек
Каналы : 2 канала
Расположение каналов : Front: L R
Частота : 48,0 КГц
Битовая глубина : 16 бит
Метод сжатия : С потерями
Размер потока : 147 Мбайт (7%)
Выравнивание : Разделение по промежуткам
Продолжительность промежутка : 42 мс. (1,00 видеокадр)
Время предзагрузки промежутка : 500 мс.
Аудио #3
Идентификатор : 3
Формат : AC-3
Формат/Информация : Audio Coding 3
Расширение режима : CM (complete main)
Параметр Endianness формата : Big
Идентификатор кодека : 2000
Продолжительность : 1 ч. 47 м.
Вид битрейта : Постоянный
Битрейт : 448 Кбит/сек
Каналы : 6 каналов
Расположение каналов : Front: L C R, Side: L R, LFE
Частота : 48,0 КГц
Битовая глубина : 16 бит
Метод сжатия : С потерями
Размер потока : 343 Мбайт (15%)
Выравнивание : Разделение по промежуткам
Продолжительность промежутка : 42 мс. (1,00 видеокадр)
Время предзагрузки промежутка : 500 мс.
Общее
Полное имя : D:\Фильмы\Азиатские\Убийцы\The Assassins.2012.HDRip.XviD.2200MB. rip by [Assassin's Creed]\The Assassins.2012.HDRip.XviD.2200MB. rip by [Assassin's Creed].eng.srt
Формат : SubRip
Размер файла : 62,8 Кбайт
Текст
Формат : SubRip
Метод сжатия : Без потерь
Общее
Полное имя : D:\Фильмы\Азиатские\Убийцы\The Assassins.2012.HDRip.XviD.2200MB. rip by [Assassin's Creed]\The Assassins.2012.HDRip.XviD.2200MB. rip by [Assassin's Creed].rus.srt
Формат : SubRip
Размер файла : 86,1 Кбайт
Текст
Формат : SubRip
Метод сжатия : Без потерь

Скриншоты

Яндекс.Метрика
Рейтинг@Mail.ru