Операция «Мертвый снег» 2 / Død Snø 2 (2014) HDRip | P | лицензия

 

Создавать темы 09-Авг-2014 09:25

Операция «Мертвый снег» 2 / Død Snø 2
-Страна: Норвегия, Исландия / Saga Film, Tappeluft Pictures, thefyzz, XYZ Films
Жанр: ужасы, боевик, комедия
Год выпуска: 2014
Продолжительность: 01:40:42
Перевод: Профессиональный (многоголосый)
Cубтитры: нет
Оригинальная аудиодорожка: норвежский
Режиссер: Томми Виркола / Tommy Wirkola
В ролях: Вегар Хоел, Орхан Гамст, Мартин Старр, Жослин ДеБоэр, Ингрид Хаас, Стиг Фроде Хенриксен, Кристиан Фидженшоу, Амрита Ачария, Дерек Мирс, Кристоффер Йонер...
Описание:
После встречи в горах с нацистами-зомби лишь Мартину удалось добраться до цивилизации, в то время как все его приятели погибли. Однако парень забыл о маленьком подарке, который он получил от своей возлюбленной Ханны, — золотой монете, которую та нашла в старом доме. Эта монета — часть клада, который подчиненные штандартенфюрера Герцога собирали для своего фюрера. Но даже после смерти немцы не намерены никому отдавать свои сокровища…

Качество: HDRip
Формат: AVI
Видео: 720x304 (2.35:1), XViD 2005 Кбит/сек / 25.000 fps / Бит/(Пиксели*Кадры) : 0.382
Аудио 1: Dolby Digital Audio Russian 448 kbps 5.1 / 48 kHz / 448 kbps
Аудио 2: Dolby Digital Audio Norvegian 448 kbps 5.1 / 48 kHz / 448 kbps-

MediaInfo

Общее
Полное имя                               : Operatsiya.Mertviy.Sneg.2.2014.P.HDRip.avi
Формат                                   : AVI
Формат/Информация                        : Audio Video Interleave
Размер файла                             : 2,05 Гбайт
Продолжительность                        : 1 ч. 40 м.
Общий поток                              : 2915 Кбит/сек
Программа кодирования                    : VirtualDubMod 1.5.10.2 (build 2540/release)
Библиотека кодирования                   : VirtualDubMod build 2540/release
Видео
Идентификатор                            : 0
Формат                                   : MPEG-4 Visual
Профиль формата                          : Advanced [email protected]
Параметр BVOP формата                    : 2
Параметр QPel формата                    : Нет
Параметр GMC формата                     : Без точки перехода
Параметр матрицы формата                 : Default (MPEG)
Идентификатор кодека                     : XVID
Идентификатор кодека/Подсказка           : XviD
Продолжительность                        : 1 ч. 40 м.
Битрейт                                  : 2005 Кбит/сек
Ширина                                   : 720 пикселей
Высота                                   : 304 пикселя
Соотношение сторон                       : 2,35:1
Частота кадров                           : 24,000 кадра/сек
Цветовое пространство                    : YUV
Субдискретизация насыщенности            : 4:2:0
Битовая глубина                          : 8 бит
Тип развёртки                            : Прогрессивная
Метод сжатия                             : С потерями
Бит/(Пиксели*Кадры)                      : 0.382
Размер потока                            : 1,41 Гбайт (69%)
Библиотека кодирования                   : XviD 1.2.1 (UTC 2008-12-04)
Аудио #1
Идентификатор                            : 1
Формат                                   : AC-3
Формат/Информация                        : Audio Coding 3
Расширение режима                        : CM (complete main)
Параметр Endianness формата              : Big
Идентификатор кодека                     : 2000
Продолжительность                        : 1 ч. 40 м.
Вид битрейта                             : Постоянный
Битрейт                                  : 448 Кбит/сек
Каналы                                   : 6 каналов
Расположение каналов                     : Front: L C R, Side: L R, LFE
Частота                                  : 48,0 КГц
Битовая глубина                          : 16 бит
Метод сжатия                             : С потерями
Размер потока                            : 323 Мбайт (15%)
Выравнивание                             : Разделение по промежуткам
Продолжительность промежутка             : 42  мс. (1,00 видеокадр)
Время предзагрузки промежутка            : 500  мс.
Аудио #2
Идентификатор                            : 2
Формат                                   : AC-3
Формат/Информация                        : Audio Coding 3
Расширение режима                        : CM (complete main)
Параметр Endianness формата              : Big
Идентификатор кодека                     : 2000
Продолжительность                        : 1 ч. 40 м.
Вид битрейта                             : Постоянный
Битрейт                                  : 448 Кбит/сек
Каналы                                   : 6 каналов
Расположение каналов                     : Front: L C R, Side: L R, LFE
Частота                                  : 48,0 КГц
Битовая глубина                          : 16 бит
Метод сжатия                             : С потерями
Размер потока                            : 323 Мбайт (15%)
Выравнивание                             : Разделение по промежуткам
Продолжительность промежутка             : 42  мс. (1,00 видеокадр)
Время предзагрузки промежутка            : 500  мс.

Скриншоты:

Яндекс.Метрика
Рейтинг@Mail.ru