[ Сегодня на трекере фрилич! Идет свободное скачивание без начисления Download ]

Власть в ночном городе / Power / Сезон: 1 / Полный / Серии: 8 из 8 (Джон Дэвид Коулз / John David Coles, ...) [2014 г., драма, HDTVRip] MVO (Amedia) + Original (Eng) + Sub (Eng)

 

Создавать темы 08-Авг-2014 14:29

- Власть в ночном городе / Power-- Производство: США, CBS Television Studios
Жанр: драма
Год выпуска: 2014 г.-Премьера (мир): 7 июня 2014
Премьера (РФ): 8 июня 2014-Озвучка: Студия
Перевод: Многоголосый закадровый, профессиональный
Оригинальный аудиопоток: английский-Режиссер: Джон Дэвид Коулз / John David Coles, Энтони Хемингуэй / Anthony Hemingway, Джордж Тиллман мл. / George Tillman Jr., ...-В ролях: Адам Хасс, Лесли Лопез, Винисиус Мачадо, Люси Уолтерс, Луис Рамос, Кэтрин Нардуччи, Шэйн Джонсон, Доминик Колон, Омари Хардвик, ...-Описание:
Заработав немало денег на нелегальной торговле наркотиками, хозяин ночного клуба планирует легализировать свой капитал. Он хочет занять достойное место в высших слоях нью-йоркской элиты, куда закрыт доступ всякого рода драгдилерам. Безусловно, деньги и власть в ночном городе неразделимые понятия, но нужна ещё определенная респектабельность и репутация, позволяющие вполне официально управлять городом и влиять на ход событий.-Сезон: 1
Серии: 8 из 8 серий
Продолжительность: ~ 00:57:00 мин серия-Качество видео: HDTVRip
Контейнер: AVI
Видео кодек: XviD
Аудио кодек: MP3
Видео: MPEG-4 Visual at 1500 Кбит/сек: 720 x 400 (1.800) at 23.976 fps: 0.22 Бит/Пиксели
Аудио Rus: MPEG Audio at 128 Кбит/сек: 2 канала, 48,0 КГц |Amedia|
Аудио Eng: MPEG Audio at 128 Кбит/сек: 2 канала, 48,0 КГц |Original|
Cубтитры: английские
Формат субтитров: нardsub (неотключаемые)
- -

Список серий:

  • Не совсем... (Not Exactly...)
  • Кем Бы Он Ни Был (Whoever He Is)
  • Это Реально (This Is Real)
  • Кто Ты? (Who Are You?)
  • Я Должен Идти (I Gotta Go)
  • Кто Вы? (Who You With?)
  • Лояльность (Loyalty)
  • Хорошо продуманный план (Best Laid Plans)
-

Media Info

Общее
Полное имя                               : E:\_Сериалы\_Сериалы\Власть в ночном городе\Power.S01\Power.S01E01.Amedia.avi
Формат                                   : AVI
Формат/Информация                        : Audio Video Interleave
Размер файла                             : 734 Мбайт
Продолжительность                        : 57 м.
Общий поток                              : 1770 Кбит/сек
Программа кодирования                    : VirtualDubMod 1.5.10.2 (build 2540/release)
Библиотека кодирования                   : VirtualDubMod build 2540/release
Видео
Идентификатор                            : 0
Формат                                   : MPEG-4 Visual
Профиль формата                          : Advanced [email protected]
Параметр BVOP формата                    : 2
Параметр QPel формата                    : Нет
Параметр GMC формата                     : Без точки перехода
Параметр матрицы формата                 : Выборочная
Идентификатор кодека                     : XVID
Идентификатор кодека/Подсказка           : XviD
Продолжительность                        : 57 м.
Битрейт                                  : 1500 Кбит/сек
Ширина                                   : 720 пикселей
Высота                                   : 400 пикселей
Соотношение сторон                       : 16:9
Частота кадров                           : 23,976 кадра/сек
Цветовое пространство                    : YUV
Субдискретизация насыщенности            : 4:2:0
Битовая глубина                          : 8 бит
Тип развёртки                            : Прогрессивная
Метод сжатия                             : С потерями
Бит/(Пиксели*Кадры)                      : 0.217
Размер потока                            : 622 Мбайт (85%)
Библиотека кодирования                   : XviD 1.2.1 (UTC 2008-12-04)
Аудио #1
Идентификатор                            : 1
Формат                                   : MPEG Audio
Версия формата                           : Version 1
Профиль формата                          : Layer 3
Идентификатор кодека                     : 55
Идентификатор кодека/Подсказка           : MP3
Продолжительность                        : 57 м.
Вид битрейта                             : Постоянный
Битрейт                                  : 128 Кбит/сек
Каналы                                   : 2 канала
Частота                                  : 48,0 КГц
Метод сжатия                             : С потерями
Размер потока                            : 53,1 Мбайт (7%)
Выравнивание                             : Соединение по промежуткам
Продолжительность промежутка             : 42  мс. (1,00 видеокадр)
Время предзагрузки промежутка            : 504  мс.
Аудио #2
Идентификатор                            : 2
Формат                                   : MPEG Audio
Версия формата                           : Version 1
Профиль формата                          : Layer 3
Режим                                    : Joint stereo
Расширение режима                        : MS Stereo
Идентификатор кодека                     : 55
Идентификатор кодека/Подсказка           : MP3
Продолжительность                        : 57 м.
Вид битрейта                             : Постоянный
Битрейт                                  : 128 Кбит/сек
Каналы                                   : 2 канала
Частота                                  : 48,0 КГц
Метод сжатия                             : С потерями
Размер потока                            : 53,1 Мбайт (7%)
Выравнивание                             : Соединение по промежуткам
Продолжительность промежутка             : 42  мс. (1,00 видеокадр)
Время предзагрузки промежутка            : 504  мс.
Библиотека кодирования                   : LAME3.90.3ЄЄЄЄЄЄЄЄЄЄ
-

Скриншот c названием фильма

-Скриншоты:
-

Еще

-Добавлена восьмая, заключительная, серия первого сезона
Яндекс.Метрика
Рейтинг@Mail.ru