[ Сегодня на трекере фрилич! Идет свободное скачивание без начисления Download ]

Мыслить как преступник / Criminal Minds (Сезон 9 / серии: 22 из 24) (Гленн Кершоу / Glenn Kershaw, ...) [2014 г., триллер, драма, криминал, детектив, ..., WEB-DLRip] MVO (NewStudio) + Original (Eng) [обновляемая]

 

Создавать темы 08-Авг-2014 14:27

Мыслить как преступник / Criminal Minds
«To catch a criminal, you have to think like one»
- Страна: США, Канада
Год выпуска: 2014
Жанр: триллер, драма, криминал, детектив, ...-Релиз: Студия |NewStudio|
Перевод: Многоголосый закадровый, профессиональный - Fox
Оригинальный аудиопоток: английский-Премьера (мир): 22 сентября 2005, ...-Режиссер: Гленн Кершоу / Glenn Kershaw, Феликс Энрикез Алькала / Félix Enríquez Alcalá, Эдвард Аллен Бернеро / Edward Allen Bernero, ...
В главных ролях: Мэнди Пэтинкин, Томас Гибсон, Шемар Мур, А.Дж. Кук, Кирстен Вангснесс, Лола Глаудини, Пэйджет Брюстер, Джейн Эткинсон, Мэттью Грей Гублер, Джо Мантенья, ...-Описание фильма:
В Сиэтле за короткое время пропали без вести четыре молодые девушки. Возникает версия, что в городе появился серийный маньяк-убийца. За расследование этого криминального случая берется спецподразделение ФБР, специализирующееся на поведенческом анализе действий преступников.
Во главе этого подразделения стоит Джейсон Гидеон, который со своими напарниками пытается вычислить преступника, создавая его психологический портрет. Джейсон — не частый гость криминалистических лабораторий ФБР. Он и его команда выезжают на места преступлений, опрашивают свидетелей, анализируют и изучают психологическую сторону жизни преступника…-Сезон: 9
Серии: 22 из 24 серий
Продолжительность: ~ 00:41:00 серия-Качество видео: WEB-DLRip
Контейнер: AVI
Видео кодек: XviD
Аудио кодек: MP3
Видео: MPEG-4 Visual at 1399 Кбит/сек: 720 x 400 (1.800) at 23.976 fps, 0.20 Бит/Пиксели
Аудио Rus: MPEG Audio at 128 Кбит/сек: 2 канала, 48,0 КГц |NewStudio|
Аудио Eng: MPEG Audio at 128 Кбит/сек: 2 канала, 48,0 КГц |Original|
Cубтитры: отсутствуют
- -

Список серий:

  • Вдохновение (The Inspiration)
  • Вдохновенный (The Inspired)
  • Финальный Снимок(Final Shot)
  • Свидетельствовать (To Bear Witness)
  • Маршрут 66 (Route 66)
  • В крови (In the Blood)
  • Привратник (Gatekeeper)
  • Возвращение (The Return)
  • Странные фрукты (Strange Fruit)
  • Абонент (The Caller)
  • Хулиган (Bully)
  • Черная Королева (The Black Queen)
  • Дорога Домой (The Road Home)
  • 200 (200)
  • Мистер И Миссис Андерсон (Mr. & Mrs. Anderson)
  • Габби (Gabby)
  • Убеждение (Persuasion)
  • Бешеный (Rabid)
  • Конец зимы (The Edge of Winter)
  • Близкие родственники (Blood Relations)
  • Что происходит в Mecklinburg... (What Happens in Mecklinburg...)
  • Смертельный (Fatal)
-

MediaInfo:

Общее
Полное имя                               : E:\_Сериалы\Criminal.Minds.(s09)\Criminal.Minds.s09e01.WEBDLRip.NewStudio.TV.avi
Формат                                   : AVI
Формат/Информация                        : Audio Video Interleave
Размер файла                             : 499 Мбайт
Продолжительность                        : 41 м.
Общий поток                              : 1669 Кбит/сек
Программа кодирования                    : VirtualDubMod 1.5.10.2 (build 2540/release)
Библиотека кодирования                   : VirtualDubMod build 2540/release
Видео
Идентификатор                            : 0
Формат                                   : MPEG-4 Visual
Профиль формата                          : Advanced [email protected]
Параметр BVOP формата                    : 2
Параметр QPel формата                    : Нет
Параметр GMC формата                     : Без точки перехода
Параметр матрицы формата                 : Default (MPEG)
Идентификатор кодека                     : XVID
Идентификатор кодека/Подсказка           : XviD
Продолжительность                        : 41 м.
Битрейт                                  : 1399 Кбит/сек
Ширина                                   : 720 пикселей
Высота                                   : 400 пикселей
Соотношение сторон                       : 16:9
Частота кадров                           : 23,976 кадра/сек
Цветовое пространство                    : YUV
Субдискретизация насыщенности            : 4:2:0
Битовая глубина                          : 8 бит
Тип развёртки                            : Прогрессивная
Метод сжатия                             : С потерями
Бит/(Пиксели*Кадры)                      : 0.203
Размер потока                            : 419 Мбайт (84%)
Библиотека кодирования                   : XviD 64
Аудио #1
Идентификатор                            : 1
Формат                                   : MPEG Audio
Версия формата                           : Version 1
Профиль формата                          : Layer 3
Режим                                    : Joint stereo
Расширение режима                        : MS Stereo
Идентификатор кодека                     : 55
Идентификатор кодека/Подсказка           : MP3
Продолжительность                        : 41 м.
Вид битрейта                             : Постоянный
Битрейт                                  : 128 Кбит/сек
Каналы                                   : 2 канала
Частота                                  : 48,0 КГц
Метод сжатия                             : С потерями
Размер потока                            : 38,3 Мбайт (8%)
Выравнивание                             : Соединение по промежуткам
Продолжительность промежутка             : 42  мс. (1,00 видеокадр)
Время предзагрузки промежутка            : 504  мс.
Аудио #2
Идентификатор                            : 2
Формат                                   : MPEG Audio
Версия формата                           : Version 1
Профиль формата                          : Layer 3
Режим                                    : Joint stereo
Расширение режима                        : MS Stereo
Идентификатор кодека                     : 55
Идентификатор кодека/Подсказка           : MP3
Продолжительность                        : 41 м.
Вид битрейта                             : Постоянный
Битрейт                                  : 128 Кбит/сек
Каналы                                   : 2 канала
Частота                                  : 48,0 КГц
Метод сжатия                             : С потерями
Размер потока                            : 38,3 Мбайт (8%)
Выравнивание                             : Соединение по промежуткам
Продолжительность промежутка             : 42  мс. (1,00 видеокадр)
Время предзагрузки промежутка            : 504  мс.
-

Скриншот c названием фильма

-Скриншоты:
-

ЕщЕ:

-
-

Внимание! Раздача ведётся путём добавления новых серий!

Раздача ведётся путём добавления новых серий; при каждом добавлении создётся новый торрент.
Чтобы начать докачку новой серии, пользователям необходимо сделать следующее:
1. остановить скачивание,
2. удалить старый торрент у себя из клиента (старые серии удалять не надо),
3. скачать новый торрент и запустить его у себя в клиенте вместо старого, при этом указать клиенту путь в старую папку, куда и должно происходить скачивание новых серий.
Ваш клиент при этом должен произвести хеширование (проверку) старой папки (если не производит сам - помогите ему сделать это), и будет докачивать только те серии которых у вас ещё нет. Старые серии при этом не удаляются, а продолжают раздаваться!
Eсли вы уже удалили старые серии, то предотвратить повторную закачку старых серий можно, отжав галочку в соответсвующих местах при запуске нового торрента. По возможности, желательно не удалять старые серии как можно дольше, чтобы релизёр не столько продолжал раздавать старые серии, а смог сконцентрироваться на новых.
Совет для тех, кто не хочет ждать перехеширования:
Создайте ещё одну папку рядом с папкой сериала (рядом, а не в ней!!!). Каждую новую серию после удачной загрузки копируйте в новую папку так чтобы ваша основная папка всегда была пуста. Когда ваш новый торрент предложит вам закачать все файлы, выберете только последнюю. Для сидирования же укажите адрес новой папки.
Как закачать отдельный файл из торрента или докачать ранее пропущенные файлы торрента!
-

Как закачать отдельный файл

1. Открыть торрент
2. Снять галки с тех файлов торрента, которые мы не хотим закачивать. Оставляем только на нужных нам файлах (файле).
3. Нажать О.К.
В клиенте utorrent
Инструкция
1) Открыть торрент

2) Снять галки с тех файлов торрента, которые мы не хотим закачивать:
* либо вручную, снимая с каждого файла галку( скрин №1)
* либо, нажав кнопку "Снять метки (Select None)", сняв сразу со всех файлов(скрин №2)
№1

№2

Оставляем только на нужных нам файлах (файле).

3)Нажать О.К
-Добавлена двадцать вторая серия девятого сезона
Яндекс.Метрика
Рейтинг@Mail.ru