Фабрика футбольных хулиганов / The Hooligan Factory (2014) HDRip

 

Создавать темы 07-Авг-2014 16:38

-Фабрика футбольных хулиганов / The Hooligan Factory (2014) HDRip- Год выпуска: 2014
Производство: Великобритания
Жанр: Комедия
Перевод: Двуголосый закадровый, любительский
Озвучка / Автор перевода: DeadSno & den904
Субтитры: Отсутствуют
Внимание! Присутствует ненормативная лексика
Дата мировой премьеры: 13 июня 2014
Дата российской премьеры: 23 октября 2014, «UMS Film»
Режиссер: Ник Неверн
Продюсер: Уилл Кларк, Энди Мэйсон, Джейсон Мацца
Актеры: Джейсон Мацца, Ник Неверн, Том Бёрк, Рэй Фиарон, Стив О'Доннелл, Морган Уоткинс, Джозеф Алтин, Ронни Фокс, Лео Грегори, Кейт-Ли Кастл
Описание фильма:
Дэнни хочет чего-то большего. Исключенный из школы, он находит футбольного хулигана Дэкстера, который посвящает Дэнни в Фабрику Футбольных Хулиганов. Футбольные Хулиганы ведут борьбу с группировкой Барона, который подкупил полицейских города и хочет уничтожить Хулиганов. В ход идет оружие, подкупы и самые невероятные вещи. Две самые большие футбольные группировки ждет бескомпромиссная борьба за право называться N1 в мире футбольных фанатов.

Продолжительность: 01:29:46
Качество видео: HDRip
Видеокодек: Xvid
Битрейт видео: ~1799 Kb/s
Размер кадра: 720x304
Аудиокодек: AC3 5.1
Битрейт аудио: 384 kb/s
Сэмпл: Скачать

MediaInfo:

Общее
Полное имя : C:Торренты\Фабрика футбольных хулиганов.2014.HDRip.avi
Формат : AVI
Формат/Информация : Audio Video Interleave
Размер файла : 1,37 Гбайт
Продолжительность : 1 ч. 29 м.
Общий поток : 2192 Кбит/сек
Программа кодирования : VirtualDubModRus 1.5.10.2 (build 2542/release)
Библиотека кодирования : VirtualDubMod build 2542/release
Видео
Идентификатор : 0
Формат : MPEG-4 Visual
Профиль формата : Advanced [email protected]
Параметр BVOP формата : 2
Параметр QPel формата : Нет
Параметр GMC формата : Без точки перехода
Параметр матрицы формата : Default (H.263)
Идентификатор кодека : XVID
Идентификатор кодека/Подсказка : XviD
Продолжительность : 1 ч. 29 м.
Битрейт : 1799 Кбит/сек
Ширина : 720 пикселей
Высота : 304 пикселя
Соотношение сторон : 2,35:1
Частота кадров : 23,976 кадра/сек
Цветовое пространство : YUV
Субдискретизация насыщенности : 4:2:0
Битовая глубина : 8 бит
Тип развёртки : Прогрессивная
Метод сжатия : С потерями
Бит/(Пиксели*Кадры) : 0.343
Размер потока : 1,13 Гбайт (82%)
Библиотека кодирования : XviD 1.2.1 (UTC 2008-12-04)
Аудио
Идентификатор : 1
Формат : AC-3
Формат/Информация : Audio Coding 3
Расширение режима : CM (complete main)
Параметр Endianness формата : Big
Идентификатор кодека : 2000
Продолжительность : 1 ч. 29 м.
Вид битрейта : Постоянный
Битрейт : 384 Кбит/сек
Каналы : 6 каналов
Расположение каналов : Front: L C R, Side: L R, LFE
Частота : 48,0 КГц
Битовая глубина : 16 бит
Метод сжатия : С потерями
Размер потока : 247 Мбайт (18%)
Выравнивание : Разделение по промежуткам
Продолжительность промежутка : 42 мс. (1,00 видеокадр)
Время предзагрузки промежутка : 500 мс.
Скриншоты:Время раздачи: с 10.00 до 22.00Незабываем благодарить релизёров. Приятного просмотра.
Яндекс.Метрика
Рейтинг@Mail.ru