Холод в июле / Cold in July (2014) WEB-DLRip [VO]

 

Создавать темы 07-Авг-2014 16:34

-Холод в июле / Cold in July (2014) WEB-DLRip
« How many men can one bullet kill? »
- Год выпуска: 2014
Производство: США, Франция | Backup Media, BSM Studio, Bullet Pictures, Paradise City
Жанр: Триллер, Криминал
Перевод: Одноголосый закадровый, любительский
Озвучка / Автор перевода: datynet
Субтитры: Отсутствуют
Дата мировой премьеры: 18 января 2014
Дата российской премьеры: 18 сентября 2014, «Cinema Prestige»
Режиссер: Джим Микл
Продюсер: Рене Бастиан, Адам Фолк, Линда Моран
Актеры: Винесса Шоу, Уайатт Расселл, Майкл С. Холл, Дон Джонсон, Сэм Шепард, Ник Дамичи, Лэнни Флаэрти, Кен Холмс, Рэйчел Зейгер-Хааг, Кристин Гриффит
Описание фильма:
Ричард Дэйн, тихий и безобидный мужчина, случайно застрелил забравшегося в его дом грабителя. Полиция опознала в убитом давно находящегося в розыске преступника, труп забрали и быстро похоронили. Однако вскоре появляется отец погибшего, Бен Рассел, живущий по принципу «око за око». И теперь Дэйну приходится защищать себя и своего ребенка. А вскоре в полицейском участке на доске с фотографиями разыскиваемых преступников он видит знакомую фамилию Рассел, но абсолютно незнакомое лицо. Полицейские подставили его или произошла трагическая ошибка? Вместе с Беном и его другом, частным детективом Джимом, он начинает нешуточное сражение за торжество справедливости.

Продолжительность: 01:50:09
Качество видео: WEB-DLRip
Видео: 720x304 (2.35:1), 23.976 fps, XviD MPEG-4 ~1954 kbps avg, 0.372 bit/pixel
Аудио №1: 48 kHz, AC3 Dolby Digital, 2 ch, ~256.00 kbps avg | Русский VO
Аудио №2: 48 kHz, AC3 Dolby Digital, 6 ch, ~448.00 kbps avg | Оригинал (английский)
Сэмпл: Скачать

MediaInfo

General
Complete name                  : D:\фильмы\Holod.v.ijule.2014.HDRip.avi
Format                         : AVI
Format/Info                    : Audio Video Interleave
Format profile                 : OpenDML
Format settings                : rec
File size                      : 2.05 GiB
Duration                       : 1h 50mn
Overall bit rate               : 2 666 Kbps
Writing application            : AVI-Mux GUI 1.17.8.3, Feb 16 201019:42:50
Video
ID                             : 0
Format                         : MPEG-4 Visual
Format profile                 : Advanced [email protected]
Format settings, BVOP          : No
Format settings, QPel          : No
Format settings, GMC           : 3 warppoints
Format settings, Matrix        : Default (H.263)
Codec ID                       : XVID
Codec ID/Hint                  : XviD
Duration                       : 1h 50mn
Bit rate                       : 1 954 Kbps
Width                          : 720 pixels
Height                         : 304 pixels
Display aspect ratio           : 2.35:1
Frame rate                     : 23.976 fps
Color space                    : YUV
Chroma subsampling             : 4:2:0
Bit depth                      : 8 bits
Scan type                      : Progressive
Compression mode               : Lossy
Bits/(Pixel*Frame)             : 0.372
Stream size                    : 1.50 GiB (73%)
Writing library                : XviD 62
Audio #1
ID                             : 1
Format                         : AC-3
Format/Info                    : Audio Coding 3
Mode extension                 : CM (complete main)
Format settings, Endianness    : Big
Codec ID                       : 2000
Duration                       : 1h 50mn
Bit rate mode                  : Constant
Bit rate                       : 256 Kbps
Channel(s)                     : 2 channels
Channel positions              : Front: L R
Sampling rate                  : 48.0 KHz
Bit depth                      : 16 bits
Compression mode               : Lossy
Stream size                    : 202 MiB (10%)
Alignment                      : Aligned on interleaves
Interleave, duration           : 64 ms (1.53 video frames)
Interleave, preload duration   : 192 ms
Title                          : Rus
Audio #2
ID                             : 2
Format                         : AC-3
Format/Info                    : Audio Coding 3
Mode extension                 : CM (complete main)
Format settings, Endianness    : Big
Codec ID                       : 2000
Duration                       : 1h 50mn
Bit rate mode                  : Constant
Bit rate                       : 448 Kbps
Channel(s)                     : 6 channels
Channel positions              : Front: L C R, Side: L R, LFE
Sampling rate                  : 48.0 KHz
Bit depth                      : 16 bits
Compression mode               : Lossy
Stream size                    : 353 MiB (17%)
Alignment                      : Aligned on interleaves
Interleave, duration           : 64 ms (1.53 video frames)
Interleave, preload duration   : 192 ms
Title                          : Eng
Скриншоты:
-Время раздачи: 10:00 - 24:00
Яндекс.Метрика
Рейтинг@Mail.ru