[ Сегодня на трекере фрилич! Идет свободное скачивание без начисления Download ]

Горец 3: Последнее измерение / Highlander III: The Sorcerer (Эндрю Морахэн / Andrew Morahan) [1994 г., фантастика, боевик, BDRip-AVC] AVO (Юрий Живов)

 

Создавать темы 07-Авг-2014 02:05

Горец 3: Последнее измерение / Highlander III: The Sorcerer Год выпуска: 1994
Производство: Канада, Франция, Великобритания
Жанр: фантастика, боевик
Продолжительность: 01:38:53
Перевод: Авторский (одноголосый, закадровый) Юрий Живов
Субтитры: отсутствуют
Режиссер: Эндрю Морахэн / Andrew Morahan
В ролях: Кристофер Ламберт, Марио Ван Пиблз, Дебора Кара Ангер, Мако, Рауль Трухильо, Жан-Пьерр Перуссе, Мартин Ньюфелд, Фредерик Й. Окимура, Дэниэл До, Габриэль Какон
Описание: Бессмертный воин Коннор Маклауд вновь вызван на поединок, на этот раз своим самым могущественным врагом, Колдуном Кейном, заточенным под мистической горой в Японии 300 лет назад и достигшим невероятной магической силы.
Ничего не подозревающие археологи освобождают Кейна. Для того, чтобы править миром колдуну нужна магическая энергия, которую он сможет получить только убив Горца. Маклауд скрывается в родные горы Шотландии, чтобы подготовиться к решающей битве и выковать новый меч в старинной кузнице.
Он встречает Алекс, ученую из музея Античной Истории. Много лет назад в другой жизни Алекс и Маклауд любили друг друга. Алекс пытается его поддержать, окончательно разгадав мистическое предназначение сражения Горца с Колдуном, которое может положить конец вечной войне за магическую энергию, сверхъестественное могущество и абсолютную власть над миром.
Качество видео: BDRip-AVC
Контейнер: MKV
Видео кодек: H.264
Аудио кодек: AC3
Видео: 720x304, 23.976fps, 1654Kbps, 0.315 bt/px
Аудио : AC-3, 448 Kbps, 6 ch, 48.0 KHz

Media Info

G:\загрузки\Highlander_III_ The_Sorcerer_[Pirat.ca].torrent.mkv
General
Unique ID : 235343092308563923615450487244287935467 (0xB10D6E4D6071A46EAD655BE90ABC83EB)
Complete name : G:\загрузки\Highlander_III_ The_Sorcerer_[Pirat.ca].torrent.mkv
Format : Matroska
Format version : Version 2
File size : 1.45 GiB
Duration : 1h 38mn
Overall bit rate : 2 102 Kbps
Encoded date : UTC 2014-08-03 12:52:24
Writing application : mkvmerge v6.1.0 ('Old Devil') built on Mar 4 2013 09:10:42
Writing library : libebml v1.3.0 + libmatroska v1.4.0
Video #1
ID : 1
Format : AVC
Format/Info : Advanced Video Codec
Format profile : [email protected]
Format settings, CABAC : Yes
Format settings, ReFrames : 12 frames
Codec ID : V_MPEG4/ISO/AVC
Duration : 1h 38mn
Bit rate : 1 654 Kbps
Width : 720 pixels
Height : 304 pixels
Display aspect ratio : 2.35:1
Frame rate mode : Constant
Frame rate : 23.976 fps
Color space : YUV
Chroma subsampling : 4:2:0
Bit depth : 8 bits
Scan type : Progressive
Bits/(Pixel*Frame) : 0.315
Stream size : 1.11 GiB (77%)
Writing library : x264 core 130 r2273 b3065e6
Encoding settings : cabac=1 / ref=12 / deblock=1:-1:-1 / analyse=0x3:0x133 / me=umh / subme=11 / psy=1 / psy_rd=1.00:0.05 / mixed_ref=1 / me_range=24 / chroma_me=1 / trellis=2 / 8x8dct=1 / cqm=0 / deadzone=21,11 / fast_pskip=0 / chroma_qp_offset=-3 / threads=4 / lookahead_threads=4 / sliced_threads=0 / nr=0 / decimate=0 / interlaced=0 / bluray_compat=0 / constrained_intra=0 / bframes=8 / b_pyramid=2 / b_adapt=2 / b_bias=0 / direct=1 / weightb=1 / open_gop=0 / weightp=2 / keyint=250 / keyint_min=23 / scenecut=40 / intra_refresh=0 / rc_lookahead=40 / rc=abr / mbtree=1 / bitrate=1654 / ratetol=1.0 / qcomp=0.60 / qpmin=0 / qpmax=69 / qpstep=4 / ip_ratio=1.40 / aq=1:1.00
Default : Yes
Forced : No
Audio #2
ID : 2
Format : AC-3
Format/Info : Audio Coding 3
Mode extension : CM (complete main)
Format settings, Endianness : Big
Codec ID : A_AC3
Duration : 1h 38mn
Bit rate mode : Constant
Bit rate : 448 Kbps
Channel(s) : 6 channels
Channel positions : Front: L C R, Side: L R, LFE
Sampling rate : 48.0 KHz
Bit depth : 16 bits
Compression mode : Lossy
Stream size : 317 MiB (21%)
Default : Yes
Forced : No

Скриншоты

Яндекс.Метрика
Рейтинг@Mail.ru