[ Сегодня на трекере фрилич! Идет свободное скачивание без начисления Download ]

За конец ответишь / Bad Johnson (2014) WEB-DL [H.264/720p-LQ]

 

Создавать темы 06-Авг-2014 15:47

-За конец ответишь / Bad Johnson (2014) WEB-DL [H.264/720p-LQ]- Год выпуска: 2014
Производство: США, 2DS Productions, Roman Empire
Жанр: Фэнтези, Комедия
Перевод: Многоголосый закадровый, профессиональный
Субтитры: Отсутствуют
Дата мировой премьеры: 1 апреля 2014
Режиссер: Хак Ботко
Продюсер: Рейд Броди, Дэнни Роман, Уильям Райан
Актеры: Кэм Жиганде, Ник Тун, Джейми Чунг, Кэтерин Каннингэм, Кэйси Таттон, Холли Хоук, Джордж Лако, Джессика Джой, Джеймс Э. Фоли, Эмили Тьюмен
Описание фильма:
Харизматичный бабник получает по заслугам — его пенис таинственным образом отделяется от тела и принимает человеческий облик.

Возраст: 16+
Продолжительность: 01:27:36
Качество видео: WEB-DL
Видеокодек: MPEG-4 AVC/H.264
Битрейт видео: 3986 kbps
Размер кадра: 1280x718
Аудио #1: 48 kHz, AC3 Dolby Digital, 2/0 (L,R) ch, ~384 kbps (Русский) / Профка
Аудио #2: 48 kHz, AC3 Dolby Digital, 3/2 (L,C,R,l,r) + LFE ch, ~384 kbps (Английский) / Оригинал

MI

Общее
Уникальный идентификатор                 : 181138256105144880177100809792240584472 (0x8845F58AE670F26A818222F68A858718)
Полное имя                               : D:\Мужа\За.конец.ответишь.2014.WEB-DL.720p.NNM-CLUB.mkv
Формат                                   : Matroska
Версия формата                           : Version 2
Размер файла                             : 2,97 Гбайт
Продолжительность                        : 1 ч. 27 м.
Общий поток                              : 4851 Кбит/сек
Дата кодирования                         : UTC 2014-08-06 03:32:00
Программа кодирования                    : mkvmerge v7.0.0 ('Where We Going') 64bit built on Jun  9 2014 15:16:27
Библиотека кодирования                   : libebml v1.3.0 + libmatroska v1.4.1
_STATISTICS_WRITING_APP                  : mkvmerge v7.0.0 ('Where We Going') 64bit built on Jun  9 2014 15:16:27
_STATISTICS_WRITING_DATE_UTC             : 2014-08-06 03:32:00
_STATISTICS_TAGS                         : BPS DURATION NUMBER_OF_FRAMES NUMBER_OF_BYTES
DURATION                                 : 01:27:36.704000000
NUMBER_OF_FRAMES                         : 164272
NUMBER_OF_BYTES                          : 252321792
Видео
Идентификатор                            : 1
Формат                                   : AVC
Формат/Информация                        : Advanced Video Codec
Профиль формата                          : [url=mailto:[email protected]][email protected][/url]
Параметр CABAC формата                   : Нет
Параметр ReFrames формата                : 2 кадра
Идентификатор кодека                     : V_MPEG4/ISO/AVC
Продолжительность                        : 1 ч. 27 м.
Битрейт                                  : 3986 Кбит/сек
Ширина                                   : 1280 пикселей
Высота                                   : 718 пикселей
Соотношение сторон                       : 16:9
Режим частоты кадров                     : Постоянный
Частота кадров                           : 23,976 кадра/сек
Цветовое пространство                    : YUV
Субдискретизация насыщенности            : 4:2:0
Битовая глубина                          : 8 бит
Тип развёртки                            : Прогрессивная
Бит/(Пиксели*Кадры)                      : 0.181
Размер потока                            : 2,44 Гбайт (82%)
Язык                                     : English
Default                                  : Да
Forced                                   : Нет
Основные цвета                           : BT.709
Характеристики трансфера                 : BT.709
Коэффициенты матрицы                     : BT.709
Аудио #1
Идентификатор                            : 2
Формат                                   : AC-3
Формат/Информация                        : Audio Coding 3
Расширение режима                        : CM (complete main)
Параметр Endianness формата              : Big
Идентификатор кодека                     : A_AC3
Продолжительность                        : 1 ч. 27 м.
Вид битрейта                             : Постоянный
Битрейт                                  : 384 Кбит/сек
Каналы                                   : 2 канала
Расположение каналов                     : Front: L R
Частота                                  : 48,0 КГц
Битовая глубина                          : 16 бит
Метод сжатия                             : С потерями
Размер потока                            : 241 Мбайт (8%)
Язык                                     : Russian
Default                                  : Да
Forced                                   : Нет
Аудио #2
Идентификатор                            : 3
Формат                                   : AC-3
Формат/Информация                        : Audio Coding 3
Расширение режима                        : CM (complete main)
Параметр Endianness формата              : Big
Идентификатор кодека                     : A_AC3
Продолжительность                        : 1 ч. 27 м.
Вид битрейта                             : Постоянный
Битрейт                                  : 384 Кбит/сек
Каналы                                   : 6 каналов
Расположение каналов                     : Front: L C R, Side: L R, LFE
Частота                                  : 48,0 КГц
Битовая глубина                          : 16 бит
Метод сжатия                             : С потерями
Размер потока                            : 241 Мбайт (8%)
Язык                                     : English
Default                                  : Нет
Forced                                   : Нет
Меню
00:00:00.000                             : en:Chapter 1
00:09:43.000                             : en:Chapter 2
00:20:55.000                             : en:Chapter 3
00:30:02.000                             : en:Chapter 4
00:39:34.000                             : en:Chapter 5
00:49:31.000                             : en:Chapter 6
00:59:45.000                             : en:Chapter 7
01:09:00.000                             : en:Chapter 8
01:21:07.000                             : en:Chapter 9
Скриншоты:Время раздачи: 24/7,
до 5 скачавших.
Яндекс.Метрика
Рейтинг@Mail.ru