[ Сегодня на трекере фрилич! Идет свободное скачивание без начисления Download ]

Череп и кости / Crossbones (Сезон 1 / серии: 8 из 9) (Дэниэл Эттиэс / Daniel Attias, ...) [2014 г., драма, ..., WEB-DLRip] MVO (NewStudio) + Original (Eng) [обновляемая]

 

Создавать темы 06-Авг-2014 14:10

Череп и кости / Crossbones- Страна: США
Год выпуска: 2014
Жанр: драма-Релиз: Студия |NewStudio|
Перевод: Многоголосый закадровый, профессиональный
Оригинальный аудиопоток: английский-Перевод: Григорий Сенин-Премьера (мир): 30 мая 2014-Режиссер: Дэниэл Эттиэс / Daniel Attias, Киаран Доннелли / Ciaran Donnelly, Деран Сарафян / Deran Sarafian, ...
В главных ролях: Джон Малкович, Трэйси Айфичор, Ясмин Эл Массри, Дэвид Хофлин, Эзра Баззингтон, Лорен Шоу, Джулиан Сэндс, Натали Блэр, Генри Херфорд, Айми Маллинз ...-Описание фильма:
1715 год. Багамский островов Нью-Провиденс. Здесь появилась первая функционирующая демократия в Америке. Дьявольский пират Эдвард Тич, он же Черная Борода, господствует здесь над нацией воров, преступников и злодеев моряков. Чтобы получить контроль над этим устрашающим обществом, опытного убийцу Тома Лоу посылают убить Черную Бороду.-Сезон: 1
Серии: 8 из 9 серий
Продолжительность: ~ 00:50:00 серия-Качество видео: WEB-DLRip
Контейнер: AVI
Видео кодек: XviD
Аудио кодек: MP3
Видео: MPEG-4 Visual at 1673 Кбит/сек: 720 x 400 (1.800) at 23.976 fps, 0.24 Бит/Пиксели
Аудио Rus: MPEG Audio at 128 Кбит/сек: 2 канала, 48,0 КГц |NewStudio|
Аудио Eng: MPEG Audio at 128 Кбит/сек: 2 канала, 48,0 КГц |Original|
Cубтитры: отсутствуют
- -

Список серий:

  • Владения дьявола (The Devil's Dominion)
  • Уговор (The Covenant)
  • Убийца Черной Бороды (The Man Who Killed Blackbeard)
  • Антуанетта (Antoinette)
  • Возвращение (The Return)
  • Дыра в голове (A Hole in the Head)
  • Попрошайка (Beggarman)
  • Череп и кости (Crossbones)
  • Чёрная борода (Blackbeard)
-

MediaInfo:

Общее
Полное имя                               : E:\_Сериалы\_Сериалы\Череп и кости\Crossbones.s01.NewStudio\Crossbones.s01e01.WEBDLRip.NewStudio.TV.avi
Формат                                   : AVI
Формат/Информация                        : Audio Video Interleave
Размер файла                             : 700 Мбайт
Продолжительность                        : 50 м.
Общий поток                              : 1943 Кбит/сек
Программа кодирования                    : VirtualDubMod 1.5.10.2 (build 2540/release)
Библиотека кодирования                   : VirtualDubMod build 2540/release
Видео
Идентификатор                            : 0
Формат                                   : MPEG-4 Visual
Профиль формата                          : Advanced [email protected]
Параметр BVOP формата                    : 2
Параметр QPel формата                    : Нет
Параметр GMC формата                     : Без точки перехода
Параметр матрицы формата                 : Default (MPEG)
Идентификатор кодека                     : XVID
Идентификатор кодека/Подсказка           : XviD
Продолжительность                        : 50 м.
Битрейт                                  : 1673 Кбит/сек
Ширина                                   : 720 пикселей
Высота                                   : 400 пикселей
Соотношение сторон                       : 16:9
Частота кадров                           : 23,976 кадра/сек
Цветовое пространство                    : YUV
Субдискретизация насыщенности            : 4:2:0
Битовая глубина                          : 8 бит
Тип развёртки                            : Прогрессивная
Метод сжатия                             : С потерями
Бит/(Пиксели*Кадры)                      : 0.242
Размер потока                            : 603 Мбайт (86%)
Библиотека кодирования                   : XviD 64
Аудио #1
Идентификатор                            : 1
Формат                                   : MPEG Audio
Версия формата                           : Version 1
Профиль формата                          : Layer 3
Режим                                    : Joint stereo
Расширение режима                        : MS Stereo
Идентификатор кодека                     : 55
Идентификатор кодека/Подсказка           : MP3
Продолжительность                        : 50 м.
Вид битрейта                             : Постоянный
Битрейт                                  : 128 Кбит/сек
Каналы                                   : 2 канала
Частота                                  : 48,0 КГц
Метод сжатия                             : С потерями
Размер потока                            : 46,1 Мбайт (7%)
Выравнивание                             : Соединение по промежуткам
Продолжительность промежутка             : 42  мс. (1,00 видеокадр)
Время предзагрузки промежутка            : 504  мс.
Аудио #2
Идентификатор                            : 2
Формат                                   : MPEG Audio
Версия формата                           : Version 1
Профиль формата                          : Layer 3
Режим                                    : Joint stereo
Расширение режима                        : MS Stereo
Идентификатор кодека                     : 55
Идентификатор кодека/Подсказка           : MP3
Продолжительность                        : 50 м.
Вид битрейта                             : Постоянный
Битрейт                                  : 128 Кбит/сек
Каналы                                   : 2 канала
Частота                                  : 48,0 КГц
Метод сжатия                             : С потерями
Размер потока                            : 46,1 Мбайт (7%)
Выравнивание                             : Соединение по промежуткам
Продолжительность промежутка             : 42  мс. (1,00 видеокадр)
Время предзагрузки промежутка            : 504  мс.
Библиотека кодирования                   : LAME3.99r
Настройки программы                      : -m j -V 4 -q 2 -lowpass 17 -b 128
-

Скриншот c названием фильма

-Скриншоты:
-

ЕщЕ:

-

Внимание! Раздача ведётся путём добавления новых серий!

Внимание! Раздача ведётся путём добавления новых серий; при каждом добавлении создётся новый торрент. Чтобы начать докачку новой серии, пользователям необходимо сделать следующее:
(1) остановить скачивание,
(2) удалить старый торрент у себя из клиента (старые серии удалять не надо),
(3) скачать новый торрент и запустить его у себя в клиенте вместо старого, при этом указать клиенту путь в старую папку куда и должно происходить скачивание новых серий.
Ваш клиент при этом должен произвести хеширование (проверку) старой папки (если не производит сам - помогите ему сделать это), и будет докачивать только те серии которых у вас ещё нет. Старые серии при этом не удаляются, а продолжают раздаваться!
Eсли вы уже удалили старые серии, то предотвратить повторную закачку старых серий можно, отжав галочку в соответствующих местах при запуске нового торрента.
-Добавлена восьмая серия первого сезона
Яндекс.Метрика
Рейтинг@Mail.ru