[ Сегодня на трекере фрилич! Идет свободное скачивание без начисления Download ]

Калифорникейшн / Блудливая Калифорния / Californication (Сезон 7, полный, серии 12 из 12) (Дэвид Фон Энкен / David Von Ancken ...) [2012г., Драма, Комедия , HDTV-Rip] MVO (NewStudio) + Original (Eng)

 

Создавать темы 06-Авг-2014 14:06

Калифорникейшн / Блудливая Калифорния
Californication

«Hank Moody... No man is more committed to a midlife crisis.»
- Русское название: Калифорникейшн / Блудливая Калифорния
Оригинальное название: Californication
Страна: США
Год выпуска: 2013
Жанр: Драма, Комедия-Озвучка: Студия |NewStudio|
Перевод: Многоголосый закадровый, профессиональный
Оригинальный аудиопоток: английский-Премьера (мир): 13 августа 2007, ...
Премьера (РФ): 12 августа 2008
Релиз на DVD: 26 октября 2010, «Юниверсал Пикчерс Рус», ...-Режиссер: Дэвид Фон Энкен / David Von Ancken, Адам Бернштейн / Adam Bernstein, Джон Дал / John Dahl ...
Актеры: Дэвид Духовны, Наташа МакЭлхоун, Мадлен Мартин, Эван Хэндлер, Памела Адлон, Мадлен Зима, Стивен Тоболовски, Каллум Кит Ренни, Рэйчел Майнер, Джейсон Бех, Рэйчел Майнер ...
Роли дублировали: Борис Шувалов, Ольга Зубкова, Соня Реснянская, Никита Прозоровский, Любовь Германова ...-Описание фильма:
Финальный отрывок жизни горе-писателя Хэнка Муди! Сюжет сериала повествует историю известного писателя и не менее известного дамского угодника Хэнка Муди. Когда-то давно Хэнк Муди был вполне счастливым жителем Нью-Йорка, у которого была спутница жизни Карен и их прекрасная дочь Рэбека. Но, видимо, счастье не может длиться вечно. Последний роман Хэнка «Бог ненавидит всех нас» решили экранизировать в Лос-Анджелесе. Вся семья сорвалась с насиженного места и отправилась на встречу «американской мечте». Однако для Хэнка Муди Город Ангелов обернулся настоящим адом.-Сезон: 7
Серии: 12 из 12 серий
Продолжительность: ~ 00:28:00 мин серия-Качество видео: HDTV-Rip
Формат: AVI
Видеокодек: XviD
Аудиокодек: AC-3
Видео: MPEG-4 Visual at 1237 Кбит/сек: 720 x 400 (1.800) at 23.976 fps, 0.18 Бит/Пиксели
Аудио Rus: AC-3 at 192 Кбит/сек: 2 канала, 48,0 КГц |NewStudio|
Аудио Eng: AC-3 at 192 Кбит/сек: 2 канала, 48,0 КГц |Original|
Cубтитры: отсутствуют
- -

Список серий:

  • Левон (Levon)
  • Джулия (Julia)
  • Яблочко от яблони (Like Father Like Son)
  • Козлы (Dicks)
  • Выпуская яд (Getting the Poison Out)
  • Начало съемок (Kickoff)
  • Улыбнись (Smile)
  • 30 минут или меньше (30 Minutes or Less)
  • Вера, надежда, любовь (Faith, Hope, Love)
  • Ужин с друзьями (Dinner with Friends)
  • Дочь (Daughter)
  • Вера (Grace)
-

MediaInfo:

Общее
Полное имя                               : E:\_Сериалы\000\Калифорникейшн\Californication-S7(NewStudio)\californication.s07e01.hdtv.rus.newstudio.tv.novafilm.tv.avi
Формат                                   : AVI
Формат/Информация                        : Audio Video Interleave
Размер файла                             : 333 Мбайт
Продолжительность                        : 28 м.
Общий поток                              : 1632 Кбит/сек
Программа кодирования                    : Lavf55.36.100
Видео
Идентификатор                            : 0
Формат                                   : MPEG-4 Visual
Профиль формата                          : Advanced [email protected]
Параметр BVOP формата                    : 2
Параметр QPel формата                    : Нет
Параметр GMC формата                     : Без точки перехода
Параметр матрицы формата                 : Default (H.263)
Режим смешивания                         : Сжатый битовый поток
Идентификатор кодека                     : XVID
Идентификатор кодека/Подсказка           : XviD
Продолжительность                        : 28 м.
Битрейт                                  : 1237 Кбит/сек
Ширина                                   : 720 пикселей
Высота                                   : 400 пикселей
Соотношение сторон                       : 16:9
Частота кадров                           : 23,976 кадра/сек
Цветовое пространство                    : YUV
Субдискретизация насыщенности            : 4:2:0
Битовая глубина                          : 8 бит
Тип развёртки                            : Прогрессивная
Метод сжатия                             : С потерями
Бит/(Пиксели*Кадры)                      : 0.179
Размер потока                            : 252 Мбайт (75%)
Библиотека кодирования                   : XviD 64
Аудио #1
Идентификатор                            : 1
Формат                                   : AC-3
Формат/Информация                        : Audio Coding 3
Расширение режима                        : CM (complete main)
Параметр Endianness формата              : Big
Идентификатор кодека                     : 2000
Продолжительность                        : 28 м.
Вид битрейта                             : Постоянный
Битрейт                                  : 192 Кбит/сек
Каналы                                   : 2 канала
Расположение каналов                     : Front: L R
Частота                                  : 48,0 КГц
Битовая глубина                          : 16 бит
Метод сжатия                             : С потерями
Размер потока                            : 39,2 Мбайт (12%)
Выравнивание                             : Соединение по промежуткам
Продолжительность промежутка             : 32  мс. (0,76 видеокадр)
Аудио #2
Идентификатор                            : 2
Формат                                   : AC-3
Формат/Информация                        : Audio Coding 3
Расширение режима                        : CM (complete main)
Параметр Endianness формата              : Big
Идентификатор кодека                     : 2000
Продолжительность                        : 28 м.
Вид битрейта                             : Постоянный
Битрейт                                  : 192 Кбит/сек
Каналы                                   : 2 канала
Расположение каналов                     : Front: L R
Частота                                  : 48,0 КГц
Битовая глубина                          : 16 бит
Метод сжатия                             : С потерями
Размер потока                            : 39,1 Мбайт (12%)
Выравнивание                             : Соединение по промежуткам
Продолжительность промежутка             : 32  мс. (0,77 видеокадр)
-

Скриншот c названием фильма

-Скриншоты:
-

Еще

-Добавлена двенадцатая, заключительная, серия седьмого сезона
Яндекс.Метрика
Рейтинг@Mail.ru