[ Сегодня на трекере фрилич! Идет свободное скачивание без начисления Download ]

Росомаха: Бессмертный / The Wolverine (Джеймс Мэнголд / James Mangold) [2013 г., Фантастика, боевик, BDRip-AVC] [Extended] AVO (Вадим Белов)

 

Создавать темы 05-Авг-2014 02:04

Росомаха: Бессмертный / The Wolverine
(Extended)
Год выпуска: 2013
Производство: США
Жанр: Фантастика, боевик
Продолжительность: 02:18:14
Перевод: Авторский (одноголосый, закадровый) Вадим Белов
Режиссер: Джеймс Мэнголд / James Mangold
В ролях: Хью Джекман / Hugh Jackman, Тао Окамото / Tao Okamoto, Рила Фокусима / Rila Fukushima, Хироюки Санада / Hiroyuki Sanada, Светлана Ходченкова / Svetlana Khodchenkova, Брайан Ти / Brian Tee, Харухико Яманучи / Haruhiko Yamanouchi, Фамка Дженсен / Famke Janssen

Описание: Росомаха спас жизнь японскому солдату когда на Нагасаки скинули атомную бомбу. Через много лет этот японец стал очень влиятельным бизнесменом. Под конец жизни, умирая от рака он приглашает Росомаху в Японию чтобы попрощаться. Но на самом деле у него совсем другие планы.
Качество видео: BDRip-AVC
Контейнер: MKV
Видео кодек: H.264
Аудио кодек: AC3
Видео: 2600 Kbps, 1032*430 pixels, 2.40:1, 23.976 fps
Аудио : AC3, 384 Kbps, 6 channels, 48.0 KHz, 16 bits - Вадим Белов

Media Info

C:\Users\LEHA\Desktop\Росомаха.2013.BDRip-AVC.mkv
General
Unique ID : 209174557346976641934603842632289071063 (0x9D5D8DEA86EC8DDA9D04F764834BAFD7)
Complete name : C:\Users\LEHA\Desktop\Росомаха.2013.BDRip-AVC.mkv
Format : Matroska
Format version : Version 2
File size : 2.88 GiB
Duration : 2h 18mn
Overall bit rate : 2 983 Kbps
Encoded date : UTC 2014-08-04 05:11:11
Writing application : mkvmerge v5.8.0 ('No Sleep / Pillow') built on Sep 2 2012 15:37:04
Writing library : libebml v1.2.3 + libmatroska v1.3.0
Video #1
ID : 1
Format : AVC
Format/Info : Advanced Video Codec
Format profile : [email protected]
Format settings, CABAC : Yes
Format settings, ReFrames : 16 frames
Codec ID : V_MPEG4/ISO/AVC
Duration : 2h 18mn
Bit rate : 2 600 Kbps
Width : 1 032 pixels
Height : 430 pixels
Display aspect ratio : 2.40:1
Frame rate : 23.976 fps
Color space : YUV
Chroma subsampling : 4:2:0
Bit depth : 8 bits
Scan type : Progressive
Bits/(Pixel*Frame) : 0.244
Stream size : 2.45 GiB (85%)
Writing library : x264 core 125 r2208 d9d2288
Encoding settings : cabac=1 / ref=16 / deblock=1:-1:-1 / analyse=0x3:0x133 / me=umh / subme=11 / psy=1 / psy_rd=1.00:0.15 / mixed_ref=1 / me_range=32 / chroma_me=1 / trellis=2 / 8x8dct=1 / cqm=0 / deadzone=21,11 / fast_pskip=1 / chroma_qp_offset=-3 / threads=12 / lookahead_threads=2 / sliced_threads=0 / nr=0 / decimate=1 / interlaced=0 / bluray_compat=0 / constrained_intra=0 / bframes=8 / b_pyramid=2 / b_adapt=2 / b_bias=0 / direct=3 / weightb=1 / open_gop=0 / weightp=2 / keyint=250 / keyint_min=23 / scenecut=40 / intra_refresh=0 / rc_lookahead=60 / rc=2pass / mbtree=1 / bitrate=2600 / ratetol=1.0 / qcomp=0.60 / qpmin=0 / qpmax=69 / qpstep=4 / cplxblur=20.0 / qblur=0.5 / ip_ratio=1.40 / aq=1:1.00
Audio #2
ID : 2
Format : AC-3
Format/Info : Audio Coding 3
Mode extension : CM (complete main)
Codec ID : A_AC3
Duration : 2h 18mn
Bit rate mode : Constant
Bit rate : 384 Kbps
Channel(s) : 6 channels
Channel positions : Front: L C R, Side: L R, LFE
Sampling rate : 48.0 KHz
Bit depth : 16 bits
Compression mode : Lossy
Stream size : 380 MiB (13%)

log x.264

x264 [info]: frame I:1964  Avg QP:12.92  size: 95213
x264 [info]: frame P:51270 Avg QP:16.23 size: 28056
x264 [info]: frame B:145630 Avg QP:18.99 size: 7328

Скриншоты

Яндекс.Метрика
Рейтинг@Mail.ru