Незнайка на Луне [01-12 из 12] (1997-1999) DVDRip

 

Создавать темы 03-Авг-2014 14:50

Незнайка на Луне Страна: Россия
Жанр: мультфильм
Год выпуска: 1997-1999
Продолжительность: 02:31:49 (серия ~ 12:30 минут)
Перевод: не требуется
Оригинальная аудиодорожка: русский
Cубтитры: нет
Режиссеры: Юрий Бутырин, Александр Люткевич
Роли озвучивали:
Венера Рахимова, Кристина Орбакайте, Светлана Степченко, Алексей Борзунов, Клара Румянова, Александр Леньков, Артем Карапетян, Михаил Кононов, Светлана Харлап и др.
Описание:
Незнайка находит на улице камень и считает, что этот камень упал с Луны. Он отдаёт его Знайке. На следующий день Знайка заметил, что при действии на камень магнитного поля камень создаёт невесомость. Знайка принял решение сделать ракету и полететь вместе с остальными коротышками на Луну, предварительно устроив спор с астрономом Стекляшкиным, о том, есть ли на Луне жизнь или нет. Перед полётом на Луну Незнайка украл прибор невесомости и чуть не утопил его в реке. За это Знайка отказывается взять его на Луну, но Незнайка решил спрятаться в ракете и полететь несанкционированно. Вместе с собой он берёт Пончика, которого не взяли на Луну из-за того, что он очень тяжёлый, и его якобы не поднимет ракета. Когда Незнайка заснул в ракете, Пончик пытается выбраться из неё, но вместо этого запускает ракету, и они вдвоём с Незнайкой улетают на Луну...- -Исходник: DVD9 R5 + DVD5 R5
Тип релиза: DVDRip
Контейнер: AVI
Видео: 688х528, (4:3), 25,000 fps, XviD ~ 2326 kbps, 0.256 bit/pixel
Аудио: 48 kHz, AC3, 2 ch, 192.00 kbps-

Список серий

01 - "Загадка Лунного Камня";
02 - "Грандиозный замысел Знайки";
03 - "Незнайка и Пончик летят на Луну"
04 - "Первый день на Луне";
05 - "Звёздочка";
06 - "Дорогие Друзья";
07 - "Акционерное Общество Гигантских Растений"
08 - "Большой Бредлам";
09 - "Незнайка ищет Работу"
10 - "Куда исчезла Ракета";
11 - "Знайка спешит на Помощь";
12 - "Дорога Домой"

MediaInfo

Общее
Полное имя : Neznayka.na.Lune.1997.DVDRip_by_AVP_Studio2.avi
Формат : AVI
Формат/Информация : Audio Video Interleave
Размер файла : 216 Мбайт
Продолжительность : 11 м.
Общий поток : 2528 Кбит/сек
Программа кодирования : VirtualDubModRus 1.5.10.2 (build 2542/release)
Библиотека кодирования : VirtualDubMod build 2542/release
Видео
Идентификатор : 0
Формат : MPEG-4 Visual
Профиль формата : Advanced [email protected]
Параметр BVOP формата : 1
Параметр QPel формата : Нет
Параметр GMC формата : Без точки перехода
Параметр матрицы формата : Выборочная
Идентификатор кодека : XVID
Идентификатор кодека/Подсказка : XviD
Продолжительность : 11 м.
Битрейт : 2326 Кбит/сек
Ширина : 688 пикселей
Высота : 528 пикселей
Соотношение сторон : 4:3
Частота кадров : 25,000 кадров/сек
Цветовое пространство : YUV
Субдискретизация насыщенности : 4:2:0
Битовая глубина : 8 бит
Тип развёртки : Прогрессивная
Метод сжатия : С потерями
Бит/(Пиксели*Кадры) : 0.256
Размер потока : 199 Мбайт (92%)
Библиотека кодирования : XviD 73
Аудио
Идентификатор : 1
Формат : AC-3
Формат/Информация : Audio Coding 3
Расширение режима : CM (complete main)
Параметр Endianness формата : Big
Идентификатор кодека : 2000
Продолжительность : 11 м.
Вид битрейта : Постоянный
Битрейт : 192 Кбит/сек
Каналы : 2 канала
Расположение каналов : Front: L R
Частота : 48,0 КГц
Битовая глубина : 16 бит
Метод сжатия : С потерями
Размер потока : 16,4 Мбайт (8%)
Выравнивание : Разделение по промежуткам
Продолжительность промежутка : 40 мс. (1,00 видеокадр)
Время предзагрузки промежутка : 500 мс

Скриншоты

Яндекс.Метрика
Рейтинг@Mail.ru