[ Сегодня на трекере фрилич! Идет свободное скачивание без начисления Download ]

Lula Galvгo - Introducing Lula Galvгo (2008) [FLAC|Lossless]<Jazz, Bossa Nova>

 

Создавать темы 03-Авг-2014 05:30

-Lula Galvгo - Introducing Lula Galvгo (2008)- Год: 2008
Жанр: Jazz, Bossa Nova
Продолжительность: 01:09:16
Label: Groovin' High
Кодек: FLAC
Битрейт: Lossless
Тип рипа: image+.cue
Сканы: нет
Треклист:
01. Rio
02. Minha Saudade
03. Esperanсa perdida
04. Qem diz que sabe
05. Ligia
06. Voce e eu
07. Change partners
08. Tristeza de nos dois
09. Outra Vez
10. Samba Novo

Отчёт ЕАС&#58;

Exact Audio Copy V1.0 beta 2 from 29. April 2011
EAC extraction logfile from 21. July 2011, 12:36
Lula Galvгo / Introducing Lula Galvгo
Used drive  : Optiarc DVD RW AD-7240S   Adapter: 2  ID: 0
Read mode               : Secure
Utilize accurate stream : Yes
Defeat audio cache      : Yes
Make use of C2 pointers : No
Read offset correction                      : 48
Overread into Lead-In and Lead-Out          : No
Fill up missing offset samples with silence : Yes
Delete leading and trailing silent blocks   : No
Null samples used in CRC calculations       : Yes
Used interface                              : Native Win32 interface for Win NT & 2000
Used output format              : User Defined Encoder
Selected bitrate                : 768 kBit/s
Quality                         : High
Add ID3 tag                     : No
Command line compressor         : C:\Program Files\Exact Audio Copy\FLAC\FLAC.EXE
Additional command line options : -6 -V -T "ARTIST=%artist%" -T "TITLE=%title%" -T "ALBUM=%albumtitle%" -T "DATE=%year%" -T "TRACKNUMBER=%tracknr%" -T "GENRE=%genre%" -T "COMMENT=%comment%" -T "BAND=%albuminterpret%" -T "COMPOSER=%composer%" %haslyrics%--ta
TOC of the extracted CD
     Track |   Start  |  Length  | Start sector | End sector
    ---------------------------------------------------------
        1  |  0:00.00 |  5:59.71 |         0    |    26995
        2  |  5:59.71 |  9:38.14 |     26996    |    70359
        3  | 15:38.10 |  7:23.73 |     70360    |   103657
        4  | 23:02.08 |  7:00.63 |    103658    |   135220
        5  | 30:02.71 |  4:56.59 |    135221    |   157479
        6  | 34:59.55 |  6:52.32 |    157480    |   188411
        7  | 41:52.12 |  6:28.73 |    188412    |   217584
        8  | 48:21.10 |  9:43.53 |    217585    |   261362
        9  | 58:04.63 |  8:16.03 |    261363    |   298565
       10  | 66:20.66 |  2:55.48 |    298566    |   311738
Range status and errors
Selected range
     Filename C:\Documents and Settings\User\Мои документы\Lula Galvгo - Introducing Lula Galvгo (2008)\Lula Galvгo - Introducing Lula Galvгo.wav
     Peak level 100.0 %
     Extraction speed 4.1 X
     Range quality 100.0 %
     Test CRC 99C2D083
     Copy CRC 99C2D083
     Copy OK
No errors occurred
AccurateRip summary
Track  1  not present in database
Track  2  not present in database
Track  3  not present in database
Track  4  not present in database
Track  5  not present in database
Track  6  not present in database
Track  7  not present in database
Track  8  not present in database
Track  9  not present in database
Track 10  not present in database
None of the tracks are present in the AccurateRip database
End of status report
==== Log checksum D5315A4FDD3354CB6CBF6990AA940064DA0F862773EA22CA60C71BAF912D5E58 ====

Отчёт auCDtect Task manager&#58;

-----------------------
DON'T MODIFY THIS FILE
-----------------------
PERFORMER: auCDtect Task Manager, ver. 1.6.0 RC1 build 1.6.0.1
Copyright (c) 2008-2010 y-soft. All rights reserved
http://y-soft.org
ANALYZER: auCDtect: CD records authenticity detector, version 0.8.2
Copyright (c) 2004 Oleg Berngardt. All rights reserved.
Copyright (c) 2004 Alexander Djourik. All rights reserved.
FILE: Lula Galvгo - Introducing Lula Galvгo.flac
  Size: 416347352 Hash: 27DBEF4AD080D50EAE992110312C6F95 Accuracy: -m0
  Conclusion: CDDA 100%
  Signature: 64093A357918E965557E9F90395A9B49B97ED13E
Время раздачи: по возможности
Яндекс.Метрика
Рейтинг@Mail.ru