Судная ночь 2 / The Purge: Anarchy (Джеймс ДеМонако / James DeMonaco) [2014 г., триллер, криминал, боевик, WEBRip] Dub (звук с TS) + Sub (Chi, hardsub)

 

Создавать темы 03-Авг-2014 04:23

-Судная ночь 2 / The Purge: Anarchy-«Добро пожаловать в идеальное будущее, где одну ночь в году все преступления легальны»- Производство: США, Франция, Blumhouse Productions, Platinum Dunes, Universal Pictures
Год выпуска: 2014 г.
Жанр: триллер, криминал, боевик
Продолжительность: 01:43:28
Мировая премьера: 17 июля 2014
Российская премьера: 31 июля 2014, «UPI»
Дата выхода DVD: 13 ноября 2014, «Двадцатый Век Фокс СНГ»
Дата выхода Blu-Ray: 13 ноября 2014, «Двадцатый Век Фокс СНГ»
Перевод: Профессиональный (полное дублирование) [звук с TS]-Режиссер: Джеймс ДеМонако / James DeMonaco
В ролях: Фрэнк Грилло, Кармен Эджого, Зак Гилфорд, Киле Санчес, Майкл К. Уильямс, Зои Борд, Жустина Мачадо, Джон Бизли, Джек Конли, Ноэль Гульеми-Описание: Добро пожаловать в идеальный мир будущего, мир без преступности и войн. И только один раз в году роскошная спокойная жизнь сменяется анархией. Этой ночью дозволено все: во тьме улиц одни жаждут мести, другие ищут развлечений, остальные пытаются дожить до рассвета…- -Качество видео: WEBRip
Контейнер: AVI
Видео кодек: XviD
Аудио кодек: MP3
Видео: 720x304 (2.37:1), 24 fps, XviD build 50 ~1753 kbps avg, 0.33 bit/pixel
Аудио: 44.100 kHz, MPEG Layer 3, 2 ch, ~128.00 kbps avg
Cубтитры: Китайские
Формат субтитров: hardsub (неотключаемые)

Media Info

General
Complete name : D:\Sudna9.No4.2.2014.Dt.WEBRip.1400MB.avi
Format : AVI
Format/Info : Audio Video Interleave
File size : 1.37 GiB
Duration : 1h 43mn
Overall bit rate : 1 891 Kbps
Writing application : VirtualDubMod 1.5.10.2 (build 2540/release)
Writing library : VirtualDubMod build 2540/release
Video
ID : 0
Format : MPEG-4 Visual
Format profile : Advanced [email protected]
Format settings, BVOP : 2
Format settings, QPel : No
Format settings, GMC : No warppoints
Format settings, Matrix : Default (MPEG)
Codec ID : XVID
Codec ID/Hint : XviD
Duration : 1h 43mn
Bit rate : 1 754 Kbps
Width : 720 pixels
Height : 304 pixels
Display aspect ratio : 2.35:1
Frame rate : 24.000 fps
Color space : YUV
Chroma subsampling : 4:2:0
Bit depth : 8 bits
Scan type : Progressive
Compression mode : Lossy
Bits/(Pixel*Frame) : 0.334
Stream size : 1.27 GiB (93%)
Writing library : XviD 1.2.1 (UTC 2008-12-04)
Audio
ID : 1
Format : MPEG Audio
Format version : Version 1
Format profile : Layer 3
Codec ID : 55
Codec ID/Hint : MP3
Duration : 1h 43mn
Bit rate mode : Constant
Bit rate : 128 Kbps
Channel(s) : 2 channels
Sampling rate : 44.1 KHz
Compression mode : Lossy
Stream size : 94.7 MiB (7%)
Alignment : Split accross interleaves
Interleave, duration : 42 ms (1.00 video frame)
Interleave, preload duration : 500 ms

Скриншоты

Яндекс.Метрика
Рейтинг@Mail.ru