[ Сегодня на трекере фрилич! Идет свободное скачивание без начисления Download ]

Один Прекрасный День / One fine day (Майкл Хоффман / Michael Hoffman) [1996, США, мелодрама, комедия, семейный, BDRip 720p] MVO + MVO (Премьер) + AVO (Визгунов) + Sub (Rus, Eng) + Original (Eng)

 

Создавать темы 02-Авг-2014 14:32

--Один Прекрасный День / One fine day«Для нее этот день был неудачным. А потом появился он и...»-- Страна: США
Жанр: мелодрама, комедия, семейный
Год выпуска: 1996
Продолжительность: 01:48:38
Перевод 1: Профессиональный (многоголосый закадровый)
Перевод 2: Профессиональный (многоголосый закадровый) - Премьер
Перевод 3: Авторский (одноголосый закадровый) - Визгунов
Cубтитры: русские, английские.
Оригинальная аудиодорожка: английский--Режиссер: Майкл Хоффман / Michael Hoffman--
В ролях: Мишель Пфайффер (Melanie Parker), Джордж Клуни (Jack Taylor), Мэй Уитман (Maggie Taylor), Алекс Д. Линц (Sammy Parker), Чарльз Дёрнинг (Lew), Джон Робин Бэйц (Mr. Yates, Jr.), Эллен Грин (Mrs. Elaine Lieberman), Джо Грифази (Manny Feldstein), Анна Мария Хорсфорд (Evelyn), Грегори Джбара (Freddy), Шейла Келли (Kristen), Роберт Клейн (Dr. Martin), Аманда Пит (Celia), и др.--Описание: Они встретились и познакомились в тот день, когда их дети опоздали на школьную экскурсию на корабле. Популярный журналист Джек Тэйлор, которому бывшая жена оставила дочку Мэгги на уикэнд, и архитектор Мэлани Паркер, одна воспитывающая сына Сэма. День начался с неприятностей и грозил превратиться в настоящий кошмар. У Джека — важная пресс-конференция, а Мелани нужно срочно сдавать проект. Обоим не на кого оставить детей, и поневоле приходится выкручиваться и выручать друг друга…--Качество видео: BDRip 720p
Формат видео: MKV
Видео кодек: AVC ([email protected])
Аудио кодек: AC-3, DTS
Видео: AVC, 1280x694 (1.85:1), 23.976 fps, 7 740 Kbps (0.363 bit/pixel)
Аудио 1: AC-3, 48.0 KHz, 6 ch, 384 Kbps, CBR, 16 бит [RUS]
Аудио 2: AC-3, 48.0 KHz, 2 ch, 192 Kbps, CBR, 16 бит [RUS] Премьер
Аудио 3: AC-3, 48.0 KHz, 6 ch, 448 Kbps, CBR, 16 бит [RUS] Визгунов
Аудио 4: DTS, 48.0 KHz, 6 ch, 1510 Kbps, CBR, 24 бит [ENG]-- --

Скриншоты:

Тех. данные (MI)

General
Unique ID : 243990502597338764955462954858841529189 (0xB78EDC8BE883C4FE8FAF1FB0B5D65B65)
Complete name : E:\One Fine Day 1996 720p.mkv
Format : Matroska
Format version : Version 2
File size : 7.95 GiB
Duration : 1h 48mn
Overall bit rate : 10.5 Mbps
Encoded date : UTC 2013-01-21 15:08:39
Writing application : mkvmerge v5.6.0 ('Kenya Kane') built on Jun 29 2012 15:01:44
Writing library : libebml v1.2.3 + libmatroska v1.3.0
Video
ID : 1
Format : AVC
Format/Info : Advanced Video Codec
Format profile : [email protected]
Format settings, CABAC : Yes
Format settings, ReFrames : 9 frames
Codec ID : V_MPEG4/ISO/AVC
Duration : 1h 48mn
Bit rate : 7 740 Kbps
Width : 1 280 pixels
Height : 694 pixels
Display aspect ratio : 1.85:1
Frame rate mode : Constant
Frame rate : 23.976 fps
Color space : YUV
Chroma subsampling : 4:2:0
Bit depth : 8 bits
Scan type : Progressive
Bits/(Pixel*Frame) : 0.363
Stream size : 5.87 GiB (74%)
Title : EbP
Writing library : x264 core 128 r2216 198a7ea
Encoding settings : cabac=1 / ref=9 / deblock=1:-3:-3 / analyse=0x3:0x113 / me=tesa / subme=9 / psy=1 / psy_rd=0.95:0.00 / mixed_ref=1 / me_range=16 / chroma_me=1 / trellis=2 / 8x8dct=1 / cqm=0 / deadzone=21,11 / fast_pskip=0 / chroma_qp_offset=-2 / threads=12 / lookahead_threads=2 / sliced_threads=0 / nr=0 / decimate=0 / interlaced=0 / bluray_compat=0 / constrained_intra=0 / bframes=7 / b_pyramid=2 / b_adapt=2 / b_bias=0 / direct=3 / weightb=1 / open_gop=0 / weightp=2 / keyint=250 / keyint_min=23 / scenecut=40 / intra_refresh=0 / rc=crf / mbtree=0 / crf=15.0 / qcomp=0.50 / qpmin=0 / qpmax=69 / qpstep=4 / ip_ratio=1.40 / pb_ratio=1.30 / aq=1:0.65
Language : English
Default : Yes
Forced : No
Matrix coefficients : BT.709
Audio #1
ID : 2
Format : AC-3
Format/Info : Audio Coding 3
Mode extension : CM (complete main)
Format settings, Endianness : Big
Codec ID : A_AC3
Duration : 1h 48mn
Bit rate mode : Constant
Bit rate : 384 Kbps
Channel(s) : 6 channels
Channel positions : Front: L C R, Side: L R, LFE
Sampling rate : 48.0 KHz
Bit depth : 16 bits
Compression mode : Lossy
Stream size : 298 MiB (4%)
Title : MVO
Language : Russian
Default : Yes
Forced : No
Audio #2
ID : 3
Format : AC-3
Format/Info : Audio Coding 3
Mode extension : CM (complete main)
Format settings, Endianness : Big
Codec ID : A_AC3
Duration : 1h 48mn
Bit rate mode : Constant
Bit rate : 192 Kbps
Channel(s) : 2 channels
Channel positions : Front: L R
Sampling rate : 48.0 KHz
Bit depth : 16 bits
Compression mode : Lossy
Stream size : 149 MiB (2%)
Title : MVO - Премьер
Language : Russian
Default : No
Forced : No
Audio #3
ID : 4
Format : AC-3
Format/Info : Audio Coding 3
Mode extension : CM (complete main)
Format settings, Endianness : Big
Codec ID : A_AC3
Duration : 1h 48mn
Bit rate mode : Constant
Bit rate : 448 Kbps
Channel(s) : 6 channels
Channel positions : Front: L C R, Side: L R, LFE
Sampling rate : 48.0 KHz
Bit depth : 16 bits
Compression mode : Lossy
Stream size : 348 MiB (4%)
Title : AVO - Визгунов
Language : Russian
Default : No
Forced : No
Audio #4
ID : 5
Format : DTS
Format/Info : Digital Theater Systems
Mode : 16
Format settings, Endianness : Big
Codec ID : A_DTS
Duration : 1h 48mn
Bit rate mode : Constant
Bit rate : 1 509 Kbps
Channel(s) : 6 channels
Channel positions : Front: L C R, Side: L R, LFE
Sampling rate : 48.0 KHz
Bit depth : 24 bits
Compression mode : Lossy
Delay relative to video : 11ms
Stream size : 1.15 GiB (14%)
Language : English
Default : No
Forced : No
Text #1
ID : 6
Format : UTF-8
Codec ID : S_TEXT/UTF8
Codec ID/Info : UTF-8 Plain Text
Title : Русский
Language : Russian
Default : No
Forced : No
Text #2
ID : 7
Format : UTF-8
Codec ID : S_TEXT/UTF8
Codec ID/Info : UTF-8 Plain Text
Title : Русский
Language : Russian
Default : No
Forced : No
Text #3
ID : 8
Format : UTF-8
Codec ID : S_TEXT/UTF8
Codec ID/Info : UTF-8 Plain Text
Title : English
Language : English
Default : No
Forced : No
Menu
00:00:00.000 : en:1. Main Titles
00:03:54.166 : en:2. The Single Mom
00:06:24.133 : en:3. The Single Dad
00:09:28.633 : en:4. Attitude Meets Attitude
00:14:53.967 : en:5. Race for the Boat
00:18:27.133 : en:6. Fish and Cookies
00:20:38.967 : en:7. Sammy at the Office
00:26:23.633 : en:8. I've Got Your Number
00:28:44.799 : en:9. Career Crises
00:36:44.466 : en:10. Superhero Day
00:40:23.300 : en:11. Manny's Second Thoughts
00:42:52.300 : en:12. Rescuing the Kids
00:48:22.833 : en:13. Meeting at Two
00:53:08.866 : en:14. The Exchange
00:58:44.499 : en:15. After Mrs. Lieberman
01:01:14.333 : en:16. Losing Maggie
01:07:55.367 : en:17. What About Bob?
01:11:03.167 : en:18. The Press Conference
01:14:24.333 : en:19. Play Ball
01:18:28.666 : en:20. Melanie's Choice
01:23:28.166 : en:21. Late for the Game
01:29:16.166 : en:22. Parting Ways
01:33:04.833 : en:23. Here's Jack
01:39:56.833 : en:24. The Big Sleep
01:42:49.999 : en:25. End Titles
Яндекс.Метрика
Рейтинг@Mail.ru