Уличный боец: Кулак убийцы / Street Fighter - Assassin's Fist (сезон 1) (Джои Анса) [2014, боевик. триллер, драма, WEBRip-AVC] [SkyeFilm] R.G. RustorRipper's

 

Создавать темы 02-Авг-2014 09:38

Уличный боец: Кулак убийцы / Street Fighter - Assassin's FistСезон 1--

  • Год выпуска: 2013
  • Страна: Великобритания
  • Жанр: боевик, триллер, драма
  • Продолжительность: серия - 00:14:00
  • Перевод: Профессиональный многоголосый [SkyeFilm]
  • Субтитры: Нет
  • В ролях: Марк Киллин, Того Игава, Майк Мо, Джои Анса, Крис Ховард, Харукико Яманоути, Гаку Спэйс, Hyunri, Акира Койеяма, Шоген
  • Режиссёр: Джои Анса

    Сериал рассказывает о периоде становления бойцами Рю и Кена, когда они жили традиционной жизнью воинов в Японии. Парни и не подозревали, что являются последними людьми, познавшими древний боевой стиль, известный как «Ансацукен» (Кулак убийцы)…--
  • Качество: WEBRip-AVC
  • Формат: MKV
  • Видео кодек: AVC
  • Аудио кодек: AC3
  • Видео: AVC at 1100 Кбит/сек, 960 x 400 at 23.976 fps
  • Аудио: AC3 at 192 Кбит/сек, 2 канала, 48,0 КГц
  • Исходник от: SkyeFilm
  • Автор рипа: Tarkin
--

MI

copyText_writeLink('this.parentNode.parentNode.nextSibling.nextSibling');
Формат                                   : Matroska
Версия формата                           : Version 2
Размер файла                             : 125 Мбайт
Продолжительность                        : 13 м.
Общий поток                              : 1293 Кбит/сек
Дата кодирования                         : UTC 2014-07-31 05:51:50
Программа кодирования                    : mkvmerge v6.1.0 ('Old Devil') built on Mar  4 2013 09:10:42
Библиотека кодирования                   : libebml v1.3.0 + libmatroska v1.4.0
Видео
Идентификатор                            : 1
Формат                                   : AVC
Формат/Информация                        : Advanced Video Codec
Профиль формата                          : [email protected]
Параметр CABAC формата                   : Да
Параметр ReFrames формата                : 10 кадров
Идентификатор кодека                     : V_MPEG4/ISO/AVC
Продолжительность                        : 13 м.
Битрейт                                  : 1100 Кбит/сек
Ширина                                   : 960 пикселей
Высота                                   : 400 пикселей
Соотношение сторон                       : 2,40:1
Режим частоты кадров                     : Постоянный
Частота кадров                           : 23,976 кадра/сек
Цветовое пространство                    : YUV
Субдискретизация насыщенности            : 4:2:0
Битовая глубина                          : 8 бит
Тип развёртки                            : Прогрессивная
Бит/(Пиксели*Кадры)                      : 0.119
Размер потока                            : 104 Мбайт (83%)
Библиотека кодирования                   : x264 core 130 r2273 b3065e6
Настройки программы                      : cabac=1 / ref=10 / deblock=1:-1:-2 / analyse=0x3:0x133 / me=umh / subme=11 / psy=1 / psy_rd=1.00:0.10 / mixed_ref=1 / me_range=32 / chroma_me=1 / trellis=2 / 8x8dct=1 / cqm=0 / deadzone=21,11 / fast_pskip=0 / chroma_qp_offset=-3 / threads=6 / lookahead_threads=1 / sliced_threads=0 / nr=0 / decimate=1 / interlaced=0 / bluray_compat=0 / constrained_intra=0 / bframes=3 / b_pyramid=2 / b_adapt=2 / b_bias=0 / direct=3 / weightb=1 / open_gop=0 / weightp=2 / keyint=240 / keyint_min=23 / scenecut=40 / intra_refresh=0 / rc_lookahead=50 / rc=2pass / mbtree=1 / bitrate=1100 / ratetol=1.0 / qcomp=0.60 / qpmin=0 / qpmax=69 / qpstep=4 / cplxblur=20.0 / qblur=0.5 / ip_ratio=1.40 / aq=1:1.00
Default                                  : Да
Forced                                   : Нет
Аудио
Идентификатор                            : 2
Формат                                   : AC-3
Формат/Информация                        : Audio Coding 3
Расширение режима                        : CM (complete main)
Параметр Endianness формата              : Big
Идентификатор кодека                     : A_AC3
Продолжительность                        : 13 м.
Вид битрейта                             : Постоянный
Битрейт                                  : 192 Кбит/сек
Каналы                                   : 2 канала
Расположение каналов                     : Front: L R
Частота                                  : 48,0 КГц
Битовая глубина                          : 16 бит
Метод сжатия                             : С потерями
Размер потока                            : 18,6 Мбайт (15%)
Default                                  : Да
Forced                                   : Нет

Скриншоты:

Яндекс.Метрика
Рейтинг@Mail.ru