[ Сегодня на трекере фрилич! Идет свободное скачивание без начисления Download ]

Сид 2: Новое поколение / Seed 2: The New Breed (Марсель Вальц / Marcel Walz) [2014 г., ужасы, триллер, HDRip] VO [den904] + Original (Eng)

 

Создавать темы 02-Авг-2014 05:41

-Сид 2: Новое поколение / Seed 2: The New Breed--
Производство: Канада, США
Год выпуска: 2014 г.
Жанр: ужасы, триллер
Продолжительность: 01:18:22
Мировая премьера: 1 февраля 2014
Перевод: Любительский (одноголосый, закадровый) [den904]
Оригинальный аудиопоток: английский
Режиссер: Марсель Вальц / Marcel Walz-В ролях: Натали Шиц, Ник Принсип, Кэролин Уильямс, Криста Кэмпбелл, Анника Штраус, Sarah Hayden, Мануш, Jared Demetri Luciano, Джефф Дилан Грэхэм, Микаела Шефер-Описание: Возвращаясь с веселого девичника в Лас-Вегасе, компания девушек беззаботно путешествует в автомобиле по пустыне Невада, когда на их пути появляется семейство психопатов во главе с выжившим маньяком Сидом…
-
Качество видео: HDRip
Контейнер: AVI
Видео кодек: XviD
Аудио кодек: AC3
Видео: 720х400; 2035 kbps; 24.000 fps; 0.294 Bit/Pixel
Аудио #1: 192 kbps; 2 ch; 48.0 kHz (Rus)
Аудио #2: 256 kbps; 2 ch; 48.0 kHz (Eng)

Media Info

General
Complete name : D:\Torrents\Seed.2.The.New.Breed.2014.L1.HDRip.1400MB.avi
Format : AVI
Format/Info : Audio Video Interleave
File size : 1.37 GiB
Duration : 1h 18mn
Overall bit rate : 2 497 Kbps
Writing application : VirtualDubMod 1.5.10.3 | www.virtualdub-fr.org || (build 2550/release)
Writing library : VirtualDubMod build 2550/release
Video
ID : 0
Format : MPEG-4 Visual
Format profile : Advanced [email protected]
Format settings, BVOP : Yes
Format settings, QPel : No
Format settings, GMC : No warppoints
Format settings, Matrix : Custom
Codec ID : XVID
Codec ID/Hint : XviD
Duration : 1h 18mn
Bit rate : 2 035 Kbps
Width : 720 pixels
Height : 400 pixels
Display aspect ratio : 16:9
Frame rate : 24.000 fps
Color space : YUV
Chroma subsampling : 4:2:0
Bit depth : 8 bits
Scan type : Progressive
Compression mode : Lossy
Bits/(Pixel*Frame) : 0.294
Stream size : 1.11 GiB (81%)
Writing library : XviD 73
Audio #1
ID : 1
Format : AC-3
Format/Info : Audio Coding 3
Mode extension : CM (complete main)
Format settings, Endianness : Big
Codec ID : 2000
Duration : 1h 18mn
Bit rate mode : Constant
Bit rate : 192 Kbps
Channel(s) : 2 channels
Channel positions : Front: L R
Sampling rate : 48.0 KHz
Bit depth : 16 bits
Compression mode : Lossy
Stream size : 108 MiB (8%)
Alignment : Split accross interleaves
Interleave, duration : 42 ms (1.00 video frame)
Interleave, preload duration : 500 ms
Audio #2
ID : 2
Format : AC-3
Format/Info : Audio Coding 3
Mode extension : CM (complete main)
Format settings, Endianness : Big
Codec ID : 2000
Duration : 1h 18mn
Bit rate mode : Constant
Bit rate : 256 Kbps
Channel(s) : 2 channels
Channel positions : Front: L R
Sampling rate : 48.0 KHz
Bit depth : 16 bits
Compression mode : Lossy
Stream size : 144 MiB (10%)
Alignment : Split accross interleaves
Interleave, duration : 42 ms (1.00 video frame)
Interleave, preload duration : 500 ms
Яндекс.Метрика
Рейтинг@Mail.ru