[ Сегодня на трекере фрилич! Идет свободное скачивание без начисления Download ]

Под куполом / Under the Dome / Сезон: 2 / Серии: 1-5 (13) (Джек Бендер / Jack Bender, ...) [2014 г., триллер, драма, детектив, WEB-DL, 720p] 2xMVO (AlexFilm, LostFilm) + Original (Eng) + Sub (Rus, Eng) [обновляемая]

 

Создавать темы 02-Авг-2014 05:40

-Под куполом / Under the Dome
«They are all trapped inside»
(2 сезон)
-- Производство: США
Жанр: триллер, драма, детектив
Год выпуска: 2014 г.
Продолжительность: 5x ~00:43:00
Мировая премьера: 24 июня 2013
Российская премьера: 14 июля 2013
Перевод: Профессиональный (многоголосый, закадровый) [AlexFilm]
Перевод #2: Профессиональный (многоголосый, закадровый) [LostFilm]
Оригинальный аудиопоток: английский
Режиссер: Джек Бендер / Jack Bender, Дэвид Баррет / David Barrett, Питер Лето / Peter Leto, ...-В ролях: Майк Фогель, Колин Форд, Аиша Хиндс, Александр Кох, Рашель Лефевр, Натали Мартинез, Дин Норрис, Джолин Парди, Бриттани Робертсон, Николас Стронг и др.-Описание: Обычным, пригожим осенним днем, город Честерс Миллз, штат Мэн, был внезапно отрезан от остального мира невидимым силовым барьером. Самолеты врезаются в купол и падают, пылая, с небес; садовнику отрезает силовым полем руку; люди, выехавшие в соседний город по делам, не могут вернуться к своим близким; автомобили взрываются от столкновения с куполом. Никто не понимает, что это за барьер, откуда он взялся и исчезнет ли он.
- - -Качество видео: WEB-DL
Контейнер: MKV
Стандарт разрешения: 720p
Видео кодек: H.264/AVC
Аудио кодек: AC3
Видео: 1280x720, 23.976 fps, ~4100 Kbps avg
Аудио: (RUS) AC3, 48.0 KHz, 6 ch (Front: L C R, Side: L R, LFE), ~384 Kbps avg - |многоголосый закадровый, AlexFilm|
Аудио #2: (RUS) AC3, 48.0 KHz, 6 ch (Front: L C R, Side: L R, LFE), ~384 Kbps avg - |многоголосый закадровый, LostFilm|
Аудио #3: (Eng) AC3, 48.0 kHz, 6 ch (Front: L C R, Side: L R, LFE), ~384 kbps avg - |Original|
Cубтитры: Russian (Анастасия Киселенко), English

Список серий

Эпизод - 01: Покатятся головы (Heads Will Roll)
Эпизод - 02: Заражение (Infestation)
Эпизод - 03: Форс-мажор (Force Majeure)
Эпизод - 04: Откровение (Revelation)
Эпизод - 05: Примирение (Reconciliation)

Эпизод - 06: In the Dark
Эпизод - 07: Going Home
Эпизод - 08: Awakening
Эпизод - 09:
Эпизод - 10:
Эпизод - 11:
Эпизод - 12:
Эпизод - 13:

Media Info

General
Complete name                    : J:\Uploads\Pirat.Ca\Under The Dome - Season 02 (2014)[720p.WEB-DL]\Under.the.Dome.S02E01.720p.WEB-DL.2xRus.Eng.HDCLUB.mkv
Format                           : Matroska
File size                        : 1.64 GiB
Duration                         : 43mn 29s
Overall bit rate                 : 5 407 Kbps
Movie name                       : Under the Dome 2x01 (2014) - Release kmarats for HDCLUB
Encoded date                     : UTC 2014-07-12 06:40:19
Writing application              : mkvmerge v6.9.1 ('Blue Panther') 64bit built on Apr 18 2014 18:23:38
Writing library                  : libebml v1.3.0 + libmatroska v1.4.1
Video
ID                               : 1
Format                           : AVC
Format/Info                      : Advanced Video Codec
Format profile                   : [email protected]
Format settings, CABAC           : No
Format settings, ReFrames        : 2 frames
Muxing mode                      : Container [email protected]
Codec ID                         : V_MPEG4/ISO/AVC
Duration                         : 43mn 29s
Bit rate mode                    : Variable
Bit rate                         : 4 147 Kbps
Width                            : 1 280 pixels
Height                           : 720 pixels
Display aspect ratio             : 16:9
Frame rate                       : 23.976 fps
Color space                      : YUV
Chroma subsampling               : 4:2:0
Bit depth                        : 8 bits
Scan type                        : Progressive
Bits/(Pixel*Frame)               : 0.188
Stream size                      : 1.26 GiB (77%)
Title                            : Under the Dome 2x01 (2014) - Release kmarats for HDCLUB
Language                         : English
Color primaries                  : BT.709-5, BT.1361, IEC 61966-2-4, SMPTE RP177
Transfer characteristics         : BT.709-5, BT.1361
Matrix coefficients              : BT.709-5, BT.1361, IEC 61966-2-4 709, SMPTE RP177
Audio #1
ID                               : 2
Format                           : AC-3
Format/Info                      : Audio Coding 3
Mode extension                   : CM (complete main)
Codec ID                         : A_AC3
Duration                         : 43mn 29s
Bit rate mode                    : Constant
Bit rate                         : 384 Kbps
Channel(s)                       : 6 channels
Channel positions                : Front: L C R, Side: L R, LFE
Sampling rate                    : 48.0 KHz
Bit depth                        : 16 bits
Stream size                      : 119 MiB (7%)
Title                            : AlexFilm
Language                         : Russian
Audio #2
ID                               : 3
Format                           : AC-3
Format/Info                      : Audio Coding 3
Mode extension                   : CM (complete main)
Codec ID                         : A_AC3
Duration                         : 43mn 29s
Bit rate mode                    : Constant
Bit rate                         : 384 Kbps
Channel(s)                       : 6 channels
Channel positions                : Front: L C R, Side: L R, LFE
Sampling rate                    : 48.0 KHz
Bit depth                        : 16 bits
Stream size                      : 119 MiB (7%)
Title                            : LostFilm
Language                         : Russian
Audio #3
ID                               : 4
Format                           : AC-3
Format/Info                      : Audio Coding 3
Mode extension                   : CM (complete main)
Codec ID                         : A_AC3
Duration                         : 43mn 29s
Bit rate mode                    : Constant
Bit rate                         : 384 Kbps
Channel(s)                       : 6 channels
Channel positions                : Front: L C R, Side: L R, LFE
Sampling rate                    : 48.0 KHz
Bit depth                        : 16 bits
Stream size                      : 119 MiB (7%)
Title                            : English
Language                         : English
Text #1
ID                               : 5
Format                           : UTF-8
Codec ID                         : S_TEXT/UTF8
Codec ID/Info                    : UTF-8 Plain Text
Title                            : rus-sub
Language                         : Russian
Text #2
ID                               : 6
Format                           : UTF-8
Codec ID                         : S_TEXT/UTF8
Codec ID/Info                    : UTF-8 Plain Text
Title                            : eng-sub
Language                         : English

Скриншоты

Яндекс.Метрика
Рейтинг@Mail.ru