Крылышко или ножка / L'aile ou la cuisse (Клод Зиди / Claude Zidi) [1976 г., Комедия, HDRip-AVC] AVO (Максим Латышев) + MVO

 

Создавать темы 01-Авг-2014 08:51

Крылышко или ножка / L'aile ou la cuisse
Год выпуска: 1976
Производство: Франция
Жанр: Комедия
Продолжительность: 01:45:25
Перевод: Авторский (одноголосый, закадровый) Максим Латышев
Перевод 2: Профессиональный (многоголосый, закадровый)
Режиссер: Клод Зиди / Claude Zidi
В ролях: Луи де Фюнес / Louis de Funès, Колюш / Coluche, Жюльен Гийомар / Julien Guiomar, Анна Закариас / Ann Zacharias, Клод Жансак / Claude Gensac, Жорж Шамара / Georges Chamarat, Жан Мартен / Jean Martin, Раймон Бюссьер / Raymond Bussières и др.

Описание: Ресторанный критик Шарль Дюшмен (Луи де Фюнес) является бесспорным авторитетом в среде рестораторов и гурманов. Он не только регулярно выпускает путеводитель по ресторанам Франции, которым руководствуются любители хорошей кухни, но и присуждает категории ресторанам, от чего в результате зависит их прибыль. Своей главной задачей он считает сохранение лучших традиций французской кухни и борьбу с её главным врагом, фабрикантом Жаком Трикателем (Жюльен Гийомар), владельцем сети дешёвых ресторанов, которые используют искусственные продукты питания, производимые на его фабрике. В планы Дюшмена входит тайное посещение ресторанов и фабрики Трикателя и сбор информации о технологии производства, чтобы затем разоблачить противника в телепередаче. К реализации плана он привлекает своего сына Жерара (Колюш), которого видит своим преемником. Однако Жерар ведёт двойную жизнь и предпочитает выступления в бродячем цирке в качестве клоуна, о чём его отец даже не догадывается.

Сэмпл ,
Качество видео: HDRip-AVC
Контейнер: MKV
Видео кодек: H.264
Аудио кодек: AC3
Видео: 3300 Kbps, 1040*442 pixels, 2.35:1, 24.000 fps
Аудио : AC3, 192 Kbps, 2 channels, 48.0 KHz, 16 bits - Латышев
Аудио #2: AC3, 192 Kbps, 2 channels, 48.0 KHz, 16 bits - MVO

Media Info

C:\Users\LEHA\Desktop\Крылышко или ножка .1976.HDRip-AVC..mkv
General
Unique ID : 184956098858277721878835680629046406789 (0x8B253FB924D08230A20CDF501E946E85)
Complete name : C:\Users\LEHA\Desktop\Крылышко или ножка .1976.HDRip-AVC..mkv
Format : Matroska
Format version : Version 2
File size : 2.71 GiB
Duration : 1h 45mn
Overall bit rate : 3 685 Kbps
Encoded date : UTC 2014-07-31 16:30:22
Writing application : mkvmerge v5.8.0 ('No Sleep / Pillow') built on Sep 2 2012 15:37:04
Writing library : libebml v1.2.3 + libmatroska v1.3.0
Video #1
ID : 1
Format : AVC
Format/Info : Advanced Video Codec
Format profile : [email protected]
Format settings, CABAC : Yes
Format settings, ReFrames : 16 frames
Muxing mode : Header stripping
Codec ID : V_MPEG4/ISO/AVC
Duration : 1h 45mn
Bit rate : 3 300 Kbps
Width : 1 040 pixels
Height : 442 pixels
Display aspect ratio : 2.35:1
Frame rate : 24.000 fps
Color space : YUV
Chroma subsampling : 4:2:0
Bit depth : 8 bits
Scan type : Progressive
Bits/(Pixel*Frame) : 0.299
Stream size : 2.37 GiB (88%)
Writing library : x264 core 125 r2208 d9d2288
Encoding settings : cabac=1 / ref=16 / deblock=1:-1:-1 / analyse=0x3:0x133 / me=umh / subme=11 / psy=1 / psy_rd=1.00:0.15 / mixed_ref=1 / me_range=32 / chroma_me=1 / trellis=2 / 8x8dct=1 / cqm=0 / deadzone=21,11 / fast_pskip=1 / chroma_qp_offset=-3 / threads=12 / lookahead_threads=2 / sliced_threads=0 / nr=0 / decimate=1 / interlaced=0 / bluray_compat=0 / constrained_intra=0 / bframes=8 / b_pyramid=2 / b_adapt=2 / b_bias=0 / direct=3 / weightb=1 / open_gop=0 / weightp=2 / keyint=250 / keyint_min=24 / scenecut=40 / intra_refresh=0 / rc_lookahead=60 / rc=2pass / mbtree=1 / bitrate=3300 / ratetol=1.0 / qcomp=0.60 / qpmin=0 / qpmax=69 / qpstep=4 / cplxblur=20.0 / qblur=0.5 / ip_ratio=1.40 / aq=1:1.00
Language : English
Audio #2
ID : 2
Format : AC-3
Format/Info : Audio Coding 3
Mode extension : CM (complete main)
Muxing mode : Header stripping
Codec ID : A_AC3
Duration : 1h 45mn
Bit rate mode : Constant
Bit rate : 192 Kbps
Channel(s) : 2 channels
Channel positions : Front: L R
Sampling rate : 48.0 KHz
Bit depth : 16 bits
Compression mode : Lossy
Stream size : 144 MiB (5%)
Title : Максим Латышев
Audio #3
ID : 3
Format : AC-3
Format/Info : Audio Coding 3
Mode extension : CM (complete main)
Muxing mode : Header stripping
Codec ID : A_AC3
Duration : 1h 45mn
Bit rate mode : Constant
Bit rate : 192 Kbps
Channel(s) : 2 channels
Channel positions : Front: L R
Sampling rate : 48.0 KHz
Bit depth : 16 bits
Compression mode : Lossy
Stream size : 144 MiB (5%)
Title : MVO

Скриншоты


Сегодня Луи де Фюнесу было бы 100лет
Полное имя — Луи Жермен Давид де Фюнес де Галарcа
Яндекс.Метрика
Рейтинг@Mail.ru