[ Сегодня на трекере фрилич! Идет свободное скачивание без начисления Download ]

(Disco) Cerrone - 1976 - 1978 [Remasters 2011] (4 Albums), FLAC (image+cue), lossless

 

Создавать темы 31-Июл-2014 21:27

-Cerrone - Remasters 2011- Жанр: Disco
Дата выпуска альбомов: 1976 - 1978 (Ремастеринг 2011)
Страна: France
Страна - производитель дисков: UK
Лейбл: Big Break Records
Формат: FLAC (image+cue)
Битрейт: lossless
Продолжительность: 4 CD, 02:07:55
Полиграфия: PNG 400 dpi, JPEG
Источник:

Треклист:

1976 - Love In C Minor, 00:29:29

01. Love In C Minor [00:16:15]
02. Black Is Black [00:05:51]
03. Midnite Lady [00:07:23]

Отчёт EAC

Exact Audio Copy V0.99 prebeta 5 from 4. May 2009
Отчёт EAC об извлечении, выполненном 25. июня 2012, 12:18
Cerrone / Love In C Minor
Дисковод: PIONEER DVD-RW DVR-219L Adapter: 5 ID: 0
Режим чтения : Достоверность
Использование точного потока : Да
Отключение кэша аудио : Да
Использование указателей C2 : Нет
Коррекция смещения при чтении : 6
Способность читать области Lead-in и Lead-out : Нет
Заполнение пропущенных сэмплов тишиной : Да
Удаление блоков с тишиной в начале и конце : Нет
При вычислениях CRC использовались нулевые сэмплы : Да
Интерфейс : Встроенный Win32-интерфейс для Win NT/2000
Выходной формат : Пользовательский кодировщик
Выбранный битрейт : 1024 kBit/s
Качество : Высокий
Добавление ID3-тэга : Нет
Утилита сжатия : C:\Program Files (x86)\Exact Audio Copy\Flac\flac.exe
Дополнительные параметры : -8 -V -T "ARTIST=%a" -T "TITLE=%t" -T "ALBUM=%g" -T "DATE=%y" -T "TRACKNUMBER=%n" -T "GENRE=%m" -T "COMMENT=EAC FLAC -8" %s
TOC извлечённого CD
Трек | Старт | Длительность | Начальный сектор | Конечный сектор
---------------------------------------------------------------------
1 | 0:00.00 | 16:17.27 | 0 | 73301
2 | 16:17.27 | 5:53.00 | 73302 | 99776
3 | 22:10.27 | 7:25.25 | 99777 | 133176
Характеристики диапазона извлечения и сообщения об ошибках
Выбранный диапазон
Имя файла F:\СВОИ РЕЛИЗЫ\Cerrone\Cerrone Remasters 2011\Cerrone 1976 ''Love In C Minor'' (Remasters 2011)\Cerrone - Love In C Minor.wav
Пиковый уровень 96.6 %
Качество диапазона 100.0 %
CRC теста 41FDEA4B
CRC копии 41FDEA4B
Копирование... OK
Ошибок не произошло
AccurateRip: сводка
Трек 1 нет в базе данных
Трек 2 нет в базе данных
Трек 3 нет в базе данных
Ни одного трека нет в базе AccurateRip
Конец отчёта

1977 - Cerrone's Paradise, 00:32:39

01. Cerrone's Paradise [00:16:46]
02. Take Me [00:05:54]
03. Time For Love [00:06:07]
04. Cerrone's Paradise (Sinlge Edit) [00:03:50]

Отчёт EAC

Exact Audio Copy V0.99 prebeta 5 from 4. May 2009
Отчёт EAC об извлечении, выполненном 26. июня 2012, 1:04
Cerrone / Cerrone's Paradise
Дисковод: PIONEER DVD-RW DVR-219L Adapter: 5 ID: 0
Режим чтения : Достоверность
Использование точного потока : Да
Отключение кэша аудио : Да
Использование указателей C2 : Нет
Коррекция смещения при чтении : 6
Способность читать области Lead-in и Lead-out : Нет
Заполнение пропущенных сэмплов тишиной : Да
Удаление блоков с тишиной в начале и конце : Нет
При вычислениях CRC использовались нулевые сэмплы : Да
Интерфейс : Встроенный Win32-интерфейс для Win NT/2000
Выходной формат : Пользовательский кодировщик
Выбранный битрейт : 1024 kBit/s
Качество : Высокий
Добавление ID3-тэга : Нет
Утилита сжатия : C:\Program Files (x86)\Exact Audio Copy\Flac\flac.exe
Дополнительные параметры : -8 -V -T "ARTIST=%a" -T "TITLE=%t" -T "ALBUM=%g" -T "DATE=%y" -T "TRACKNUMBER=%n" -T "GENRE=%m" -T "COMMENT=EAC FLAC -8" %s
TOC извлечённого CD
Трек | Старт | Длительность | Начальный сектор | Конечный сектор
---------------------------------------------------------------------
1 | 0:00.00 | 16:48.68 | 0 | 75667
2 | 16:48.68 | 5:56.25 | 75668 | 102392
3 | 22:45.18 | 6:10.64 | 102393 | 130206
4 | 28:56.07 | 3:53.07 | 130207 | 147688
Характеристики диапазона извлечения и сообщения об ошибках
Выбранный диапазон
Имя файла F:\СВОИ РЕЛИЗЫ\Cerrone\Cerrone Remasters 2011\Cerrone 1977 ''Cerrone's Paradise (Remasters 2011)\Cerrone - Cerrone's Paradise.wav
Пиковый уровень 96.6 %
Качество диапазона 100.0 %
CRC теста BCA9941E
CRC копии BCA9941E
Копирование... OK
Ошибок не произошло
AccurateRip: сводка
Трек 1 нет в базе данных
Трек 2 нет в базе данных
Трек 3 нет в базе данных
Трек 4 нет в базе данных
Ни одного трека нет в базе AccurateRip
Конец отчёта

1977 - Supernature, 00:33:52

01. Supernature [00:09:44]
02. Sweet Dreams [00:02:40]
03. In The Smoke [00:05:31]
04. Give Me Love [00:07:42]
05. Love Is Here [00:02:20]
06. Love Is The Answer [00:05:53]

Отчёт EAC

Exact Audio Copy V0.99 prebeta 5 from 4. May 2009
Отчёт EAC об извлечении, выполненном 26. июня 2012, 12:49
Cerrone / Supernature
Дисковод: PIONEER DVD-RW DVR-219L Adapter: 5 ID: 0
Режим чтения : Достоверность
Использование точного потока : Да
Отключение кэша аудио : Да
Использование указателей C2 : Нет
Коррекция смещения при чтении : 6
Способность читать области Lead-in и Lead-out : Нет
Заполнение пропущенных сэмплов тишиной : Да
Удаление блоков с тишиной в начале и конце : Нет
При вычислениях CRC использовались нулевые сэмплы : Да
Интерфейс : Встроенный Win32-интерфейс для Win NT/2000
Выходной формат : Пользовательский кодировщик
Выбранный битрейт : 1024 kBit/s
Качество : Высокий
Добавление ID3-тэга : Нет
Утилита сжатия : C:\Program Files (x86)\Exact Audio Copy\Flac\flac.exe
Дополнительные параметры : -8 -V -T "ARTIST=%a" -T "TITLE=%t" -T "ALBUM=%g" -T "DATE=%y" -T "TRACKNUMBER=%n" -T "GENRE=%m" -T "COMMENT=EAC FLAC -8" %s
TOC извлечённого CD
Трек | Старт | Длительность | Начальный сектор | Конечный сектор
---------------------------------------------------------------------
1 | 0:00.00 | 9:44.71 | 0 | 43870
2 | 9:44.71 | 2:40.32 | 43871 | 55902
3 | 12:25.28 | 5:31.31 | 55903 | 80758
4 | 17:56.59 | 7:42.17 | 80759 | 115425
5 | 25:39.01 | 2:20.26 | 115426 | 125951
6 | 27:59.27 | 5:53.06 | 125952 | 152432
Характеристики диапазона извлечения и сообщения об ошибках
Выбранный диапазон
Имя файла F:\СВОИ РЕЛИЗЫ\Cerrone\Cerrone Remasters 2011\Cerrone 1977 ''Supernature'' (Remasters 2011)\Cerrone - Supernature.wav
Пиковый уровень 96.6 %
Качество диапазона 100.0 %
CRC теста DD6D2205
CRC копии DD6D2205
Копирование... OK
Ошибок не произошло
AccurateRip: сводка
Трек 1 нет в базе данных
Трек 2 нет в базе данных
Трек 3 нет в базе данных
Трек 4 нет в базе данных
Трек 5 нет в базе данных
Трек 6 нет в базе данных
Ни одного трека нет в базе AccurateRip
Конец отчёта

1978 - The Golden Touch, 00:31:53

01. Je Suis Music [00:07:48]
02. Rocket in the Pocket [00:07:21]
03. Look for Love [00:10:15]
04. Music of Life [00:06:28]

Отчёт EAC

Exact Audio Copy V0.99 prebeta 5 from 4. May 2009
Отчёт EAC об извлечении, выполненном 27. июня 2012, 0:29
Cerrone / The Golden Touch
Дисковод: PIONEER DVD-RW DVR-219L Adapter: 5 ID: 0
Режим чтения : Достоверность
Использование точного потока : Да
Отключение кэша аудио : Да
Использование указателей C2 : Нет
Коррекция смещения при чтении : 6
Способность читать области Lead-in и Lead-out : Нет
Заполнение пропущенных сэмплов тишиной : Да
Удаление блоков с тишиной в начале и конце : Нет
При вычислениях CRC использовались нулевые сэмплы : Да
Интерфейс : Встроенный Win32-интерфейс для Win NT/2000
Выходной формат : Пользовательский кодировщик
Выбранный битрейт : 1024 kBit/s
Качество : Высокий
Добавление ID3-тэга : Нет
Утилита сжатия : C:\Program Files (x86)\Exact Audio Copy\Flac\flac.exe
Дополнительные параметры : -8 -V -T "ARTIST=%a" -T "TITLE=%t" -T "ALBUM=%g" -T "DATE=%y" -T "TRACKNUMBER=%n" -T "GENRE=%m" -T "COMMENT=EAC FLAC -8" %s
TOC извлечённого CD
Трек | Старт | Длительность | Начальный сектор | Конечный сектор
---------------------------------------------------------------------
1 | 0:00.00 | 7:48.37 | 0 | 35136
2 | 7:48.37 | 7:21.53 | 35137 | 68264
3 | 15:10.15 | 10:15.00 | 68265 | 114389
4 | 25:25.15 | 6:28.30 | 114390 | 143519
Характеристики диапазона извлечения и сообщения об ошибках
Выбранный диапазон
Имя файла F:\СВОИ РЕЛИЗЫ\Cerrone\Cerrone Remasters 2011\Cerrone 1978 ''The Golden Touch'' (Remasters 2011)\Cerrone - The Golden Touch.wav
Пиковый уровень 96.6 %
Качество диапазона 100.0 %
CRC теста 10E22B3D
CRC копии 10E22B3D
Копирование... OK
Ошибок не произошло
AccurateRip: сводка
Трек 1 нет в базе данных
Трек 2 нет в базе данных
Трек 3 нет в базе данных
Трек 4 нет в базе данных
Ни одного трека нет в базе AccurateRip
Конец отчёта
Яндекс.Метрика
Рейтинг@Mail.ru