[ Сегодня на трекере фрилич! Идет свободное скачивание без начисления Download ]

(Pop) Андрей Державин и группа Сталкер - 1994, FLAC (image + .cue), lossless

 

Создавать темы 31-Июл-2014 20:21

Андрей Державин и группа Сталкер- Жанр: Pop
Год издания: 1994
Страна: Россия
Аудиокодек: FLAC (*.flac)
Тип рипа: image+.cue
Битрейт аудио: lossless
Продолжительность:00:42:16
Наличие сканов в содержимом раздачи: да
Треклист:
01. Не плачь, Алиса 04:33
02. Когда ты уйдешь 04:41
03. Все как всегда 06:03
04. Было или не было 03:12
05. Грустная девчонка 05:00
06. Три недели 03:11
07. С Днем Рождения, Друг! 04:25
08. Катя - Катерина 04:16
09. Забудь обо мне 04:03
10. Песня про брата 02:47
11. Чужая свадьба 04:19

Лог проверки качества

-----------------------
DON'T MODIFY THIS FILE
-----------------------
PERFORMER: auCDtect Task Manager, ver. 1.6.0 RC1 build 1.6.0.1
Copyright (c) 2008-2010 y-soft. All rights reserved
[url=http://y-soft.org]http://y-soft.org[/url]
ANALYZER: auCDtect: CD records authenticity detector, version 0.8.2
Copyright (c) 2004 Oleg Berngardt. All rights reserved.
Copyright (c) 2004 Alexander Djourik. All rights reserved.
FILE: Андрей Державин и группа Сталкер - Андрей Державин и группа Сталкер.flac
Size: 321586422 Hash: 32411E70B52EAD64AB040864DE703CB3 Accuracy: -m0
Conclusion: CDDA 100%
Signature: 18C7CF13C181C523497202B0959F928F80A01056

Лог создания рипа

Exact Audio Copy V1.0 beta 3 from 29. August 2011
EAC extraction logfile from 30. July 2014, 20:34
Андрей Державин и группа Сталкер / Андрей Державин и группа Сталкер
Used drive  : ASUS    DRW-24B1ST   Adapter: 0  ID: 0
Read mode               : Secure
Utilize accurate stream : Yes
Defeat audio cache      : Yes
Make use of C2 pointers : No
Read offset correction                      : 6
Overread into Lead-In and Lead-Out          : No
Fill up missing offset samples with silence : Yes
Delete leading and trailing silent blocks   : No
Null samples used in CRC calculations       : Yes
Used interface                              : Installed external ASPI interface
Used output format              : User Defined Encoder
Selected bitrate                : 768 kBit/s
Quality                         : High
Add ID3 tag                     : No
Command line compressor         : C:\Program Files (x86)\Exact Audio Copy\FLAC\FLAC.EXE
Additional command line options : -6 -V -T "ARTIST=%artist%" -T "TITLE=%title%" -T "ALBUM=%albumtitle%" -T "DATE=%year%" -T "TRACKNUMBER=%tracknr%" -T "GENRE=%genre%" -T "COMMENT=%comment%" -T "BAND=%albuminterpret%" -T "ALBUMARTIST=%albuminterpret%" -T "COMPOSER=%composer%" %haslyrics%--tag-from-file=LYRICS="%lyricsfile%"%haslyrics% -T "DISCNUMBER=%cdnumber%" -T "TOTALDISCS=%totalcds%" -T "TOTALTRACKS=%numtracks%" %hascover%--picture="%coverfile%"%hascover% %source% -o %dest%
TOC of the extracted CD
     Track |   Start  |  Length  | Start sector | End sector
    ---------------------------------------------------------
        1  |  0:00.35 |  4:33.17 |        35    |    20526
        2  |  4:33.52 |  4:41.38 |     20527    |    41639
        3  |  9:15.15 |  6:03.67 |     41640    |    68931
        4  | 15:19.07 |  3:12.45 |     68932    |    83376
        5  | 18:31.52 |  5:00.30 |     83377    |   105906
        6  | 23:32.07 |  3:11.08 |    105907    |   120239
        7  | 26:43.15 |  4:25.47 |    120240    |   140161
        8  | 31:08.62 |  4:16.53 |    140162    |   159414
        9  | 35:25.40 |  4:03.15 |    159415    |   177654
       10  | 39:28.55 |  2:47.30 |    177655    |   190209
       11  | 42:16.10 |  4:19.27 |    190210    |   209661
Range status and errors
Selected range
     Filename E:\Music\Андрей Державин и группа Сталкер - Андрей Державин и группа Сталкер.wav
     Peak level 99.6 %
     Extraction speed 8.1 X
     Range quality 100.0 %
     Test CRC 0228EA92
     Copy CRC 0228EA92
     Copy OK
No errors occurred
AccurateRip summary
Track  1  not present in database
Track  2  not present in database
Track  3  not present in database
Track  4  not present in database
Track  5  not present in database
Track  6  not present in database
Track  7  not present in database
Track  8  not present in database
Track  9  not present in database
Track 10  not present in database
Track 11  not present in database
None of the tracks are present in the AccurateRip database
End of status report
------------------------------------------------------------
Exact Audio Copy V1.0 beta 3 from 29. August 2011
EAC extraction logfile from 30. July 2014, 20:34
Андрей Державин и группа Сталкер / Андрей Державин и группа Сталкер
Used drive  : ASUS    DRW-24B1ST   Adapter: 0  ID: 0
Read mode               : Secure
Utilize accurate stream : Yes
Defeat audio cache      : Yes
Make use of C2 pointers : No
Read offset correction                      : 6
Overread into Lead-In and Lead-Out          : No
Fill up missing offset samples with silence : Yes
Delete leading and trailing silent blocks   : No
Null samples used in CRC calculations       : Yes
Used interface                              : Installed external ASPI interface
Used output format              : User Defined Encoder
Selected bitrate                : 768 kBit/s
Quality                         : High
Add ID3 tag                     : No
Command line compressor         : C:\Program Files (x86)\Exact Audio Copy\FLAC\FLAC.EXE
Additional command line options : -6 -V -T "ARTIST=%artist%" -T "TITLE=%title%" -T "ALBUM=%albumtitle%" -T "DATE=%year%" -T "TRACKNUMBER=%tracknr%" -T "GENRE=%genre%" -T "COMMENT=%comment%" -T "BAND=%albuminterpret%" -T "ALBUMARTIST=%albuminterpret%" -T "COMPOSER=%composer%" %haslyrics%--tag-from-file=LYRICS="%lyricsfile%"%haslyrics% -T "DISCNUMBER=%cdnumber%" -T "TOTALDISCS=%totalcds%" -T "TOTALTRACKS=%numtracks%" %hascover%--picture="%coverfile%"%hascover% %source% -o %dest%
TOC of the extracted CD
     Track |   Start  |  Length  | Start sector | End sector
    ---------------------------------------------------------
        1  |  0:00.35 |  4:33.17 |        35    |    20526
        2  |  4:33.52 |  4:41.38 |     20527    |    41639
        3  |  9:15.15 |  6:03.67 |     41640    |    68931
        4  | 15:19.07 |  3:12.45 |     68932    |    83376
        5  | 18:31.52 |  5:00.30 |     83377    |   105906
        6  | 23:32.07 |  3:11.08 |    105907    |   120239
        7  | 26:43.15 |  4:25.47 |    120240    |   140161
        8  | 31:08.62 |  4:16.53 |    140162    |   159414
        9  | 35:25.40 |  4:03.15 |    159415    |   177654
       10  | 39:28.55 |  2:47.30 |    177655    |   190209
       11  | 42:16.10 |  4:19.27 |    190210    |   209661
Range status and errors
Selected range
     Filename E:\Music\Андрей Державин и группа Сталкер - Андрей Державин и группа Сталкер.wav
     Peak level 99.6 %
     Extraction speed 8.1 X
     Range quality 100.0 %
     Test CRC 0228EA92
     Copy CRC 0228EA92
     Copy OK
No errors occurred
AccurateRip summary
Track  1  not present in database
Track  2  not present in database
Track  3  not present in database
Track  4  not present in database
Track  5  not present in database
Track  6  not present in database
Track  7  not present in database
Track  8  not present in database
Track  9  not present in database
Track 10  not present in database
Track 11  not present in database
None of the tracks are present in the AccurateRip database
End of status report
Яндекс.Метрика
Рейтинг@Mail.ru