[ Сегодня на трекере фрилич! Идет свободное скачивание без начисления Download ]

Настоящая кровь / True Blood / Сезон: 7 / Серии: 6 из 10 (Майкл Леманн / Michael Lehmann, ...) [2014 г., фэнтези, триллер, драма, мелодрама, детектив, ..., WEB-DLRip ] DVO (Кубик в Кубе) + Original (Eng) [обновляемая]

 

Создавать темы 31-Июл-2014 16:19

-Настоящая кровь / True Blood
«You Know You're Hooked»
-- Производство: США
Жанр: фэнтези, триллер, драма, мелодрама, детектив, ...
Год выпуска: 2014 г.-Премьера (мир): 7 сентября 2008, ...
Премьера (РФ): 23 октября 2009-Релиз: Студия
Перевод: Двухголосый закадровый, профессиональный
Оригинальный аудиопоток: английский-Релиз: MEKC.INFO
Перевод текста: Инга Бу
Работа со звуком: Руслан Габидуллин
Работа с видео: Mekc-Режиссер: Майкл Леманн / Michael Lehmann, Скотт Уинант / Scott Winant, Даниэль Минахан / Daniel Minahan, ...-В ролях: Анна Пакуин, Стивен Мойер, Александр Скарсгард, Сэм Траммелл, Райан Квантен, Рутина Уэсли, Кристофер Бауэр, Нелсан Эллис, Джим Пэррак, Кэрри Престон, Роберт Казински, Рутгер Хауэр, ...-Описание:
В 7 заключительном сезоне сериала «Настоящая кровь» зрителей ожидает развязка множества сюжетных линий, так и не завершенных в финальном эпизоде 6-го сезона. После неудачной попытки геноцида вампирской расы, путем добавления в настоящую кровь смертельного вируса гепатита-V, правительство сталкивается с опасными последствиями для представителей всех видов. Каждый 8-ой вампир в стране инфицирован, вот только доза, которая содержится в одной бутылке настоящей крови, не приводит к скоропостижной гибели, как в случае с Норой, вместо этого превращая существо, питающееся кровью в медленно разлагающегося зомби. Тем временем, жители Бон Темпс осваивают новый для себя вид сотрудничества с вампирами: в преддверии зомби-вампирского апокалипсиса единственный способ предотвратить массовое заражение, это соблюдать «пищевую моногамию». Вампир питается лишь одним человеком, исключительно на добровольной основе, в обмен на защиту это человека и его семьи от особей, больных гепатитом-V. Но вирус распространяется с огромной скоростью – таким образом, в 7 сезоне угроза впервые нависает не над Суки, а над теми, кто казался людям непобедимой и устрашающей силой. Люди и вампиры должны объединиться, ведь только сообща можно остановить надвигающуюся беду.-Сезон: 7
Серии: 6 из 10 серий
Продолжительность: ~ 00:50:00 мин серия-Качество видео: WEB-DLRip
Контейнер: AVI
Видео кодек: XviD
Аудио кодек: MP3
Видео: MPEG-4 Visual at 1499 Кбит/сек: 720 x 400 (1.800) at 23.976 fps: 0.22 Бит/Пиксели
Аудио Rus: MPEG Audio at 192 Кбит/сек, 2 канала, 48,0 КГц |Кубик в Кубе|
Аудио Eng: MPEG Audio at 128 Кбит/сек, 2 канала, 48,0 КГц |Original|
Cубтитры: присутствуют (Eng sub, Rus sub)
Формат: SRT
-
-

Список серий:

  • Иисус грядёт (Jesus Gonna Be Here)
  • Я нашёл тебя (I Found You)
  • Сейчас рванёт! (Fire in the Hole)
  • Смерть-это не конец (Death Is Not the End)
  • Проигранное дело (Lost Cause)
  • Карма (Karma)


  • В последний раз (One Last Time)

  • (***)

  • Любовь должна умереть (Love Is to Die)

  • Спасибо (Thank You)
-

Media Info

Общее
Полное имя                               : E:\_Сериалы\_NeW_\Новая папка\True Blood (7 season, Kubik v Kube) WEB-DLrip\True.Blood.S07E01.WEB-DLrip[Kubik_v_Kube]&[MEKC.INFO].avi
Формат                                   : AVI
Формат/Информация                        : Audio Video Interleave
Размер файла                             : 689 Мбайт
Продолжительность                        : 50 м.
Общий поток                              : 1897 Кбит/сек
Программа кодирования                    : VirtualDubMod 1.5.10.2 (build 2540/release)
Библиотека кодирования                   : VirtualDubMod build 2540/release
Видео
Идентификатор                            : 0
Формат                                   : MPEG-4 Visual
Профиль формата                          : Advanced [email protected]
Параметр BVOP формата                    : 2
Параметр QPel формата                    : Нет
Параметр GMC формата                     : Без точки перехода
Параметр матрицы формата                 : Default (MPEG)
Идентификатор кодека                     : XVID
Идентификатор кодека/Подсказка           : XviD
Продолжительность                        : 50 м.
Битрейт                                  : 1499 Кбит/сек
Ширина                                   : 720 пикселей
Высота                                   : 400 пикселей
Соотношение сторон                       : 16:9
Частота кадров                           : 23,976 кадра/сек
Цветовое пространство                    : YUV
Субдискретизация насыщенности            : 4:2:0
Битовая глубина                          : 8 бит
Тип развёртки                            : Прогрессивная
Метод сжатия                             : С потерями
Бит/(Пиксели*Кадры)                      : 0.217
Размер потока                            : 544 Мбайт (79%)
Библиотека кодирования                   : XviD 1.2.1 (UTC 2008-12-04)
Аудио #1
Идентификатор                            : 1
Формат                                   : MPEG Audio
Версия формата                           : Version 1
Профиль формата                          : Layer 3
Идентификатор кодека                     : 55
Идентификатор кодека/Подсказка           : MP3
Продолжительность                        : 50 м.
Вид битрейта                             : Постоянный
Битрейт                                  : 192 Кбит/сек
Каналы                                   : 2 канала
Частота                                  : 48,0 КГц
Метод сжатия                             : С потерями
Размер потока                            : 69,7 Мбайт (10%)
Выравнивание                             : Соединение по промежуткам
Продолжительность промежутка             : 42  мс. (1,00 видеокадр)
Время предзагрузки промежутка            : 504  мс.
Библиотека кодирования                   : LAME3.99r
Настройки программы                      : -m s -V 4 -q 0 -lowpass 18.6 -b 192
Аудио #2
Идентификатор                            : 2
Формат                                   : MPEG Audio
Версия формата                           : Version 1
Профиль формата                          : Layer 3
Идентификатор кодека                     : 55
Идентификатор кодека/Подсказка           : MP3
Продолжительность                        : 50 м.
Вид битрейта                             : Постоянный
Битрейт                                  : 192 Кбит/сек
Каналы                                   : 2 канала
Частота                                  : 48,0 КГц
Метод сжатия                             : С потерями
Размер потока                            : 69,7 Мбайт (10%)
Выравнивание                             : Соединение по промежуткам
Продолжительность промежутка             : 42  мс. (1,00 видеокадр)
Время предзагрузки промежутка            : 504  мс.
Библиотека кодирования                   : LAME3.99r
Настройки программы                      : -m s -V 4 -q 0 -lowpass 18.6 -b 192
-

Скриншот c названием фильма

-Скриншоты:
-

Еще

-

Внимание! Раздача ведётся путём добавления новых серий!

Внимание! Раздача ведётся путём добавления новых серий; при каждом добавлении создаётся новый торрент. Чтобы начать докачку новой серии, пользователям необходимо сделать следующее:
(1) остановить скачивание,
(2) удалить старый торрент у себя из клиента (старые серии удалять не надо),
(3) скачать новый торрент и запустить его у себя в клиенте вместо старого, при этом указать клиенту путь в старую папку куда и должно происходить скачивание новых серий.
Ваш клиент при этом должен произвести хеширование (проверку) старой папки (если не производит сам - помогите ему сделать это), и будет докачивать только те серии которых у вас ещё нет. Старые серии при этом не удаляются, а продолжают раздаваться!
Eсли вы уже удалили старые серии, то предотвратить повторную закачку старых серий можно, отжав галочку в соответствующих местах при запуске нового торрента.
-Добавлена шестая серия седьмого сезона
Яндекс.Метрика
Рейтинг@Mail.ru