[ Сегодня на трекере фрилич! Идет свободное скачивание без начисления Download ]

Турбо / Turbo (Дэвид Сорен) [2013, мультфильм, комедия, семейный, HDRip] от Youtracker | Лицензия

 

Создавать темы 29-Окт-2013 09:04

-Турбо / Turbo- Страна: США, DreamWorks Animation
Жанр: мультфильм, комедия, семейный
Год выпуска: 2013
Продолжительность: 01:35:40
Перевод: Профессиональный (дублированный) BD EUR
Cубтитры: нет
Оригинальная аудиодорожка: нет
Режиссер: Дэвид Сорен / David Soren
Роли озвучили: Райан Рейнольдс /Ryan Reynolds/, Пол Джаматти /Paul Giamatti/, Снуп Догг /Snoop Dogg/, Майя Рудольф /Maya Rudolph/, Мишель Родригес /Michelle Rodriguez/, Сэмюэл Л. Джексон /Samuel L. Jackson/, Луис Гусман /Luis Guzman/, Билл Хейдер /Bill Hader/, Бен Шварц /Ben Schwartz/, Майкл Пенья /Michael Pena/
Описание: Ничто так не раздражает темпераментную, мечтающую о скорости улитку с говорящим именем Турбо, как неспешная жизнь, медленные разговоры, заторможенные соседи. Пусть наш герой выглядит большим чудаком в этом вялом, неторопливом мире, пусть он идёт вопреки закону природы о «рождённом ползать», но если в сердце горит «пламенный мотор», а душа верит в чудо, оно просто не имеет права не произойти!

Качество видео: HDRip [Turbo.2013.BluRay.720p.DTS.Rus.Ukr.2xEng.HDCLUB
Формат видео: AVI
Видео кодек: XviD
Аудио кодек: AC3
Видео: 720x304 (2.37:1), 23.976 fps, XviD build 73 ~1793 kbps avg, 0.34 bit/pixel
Аудио: 48 kHz, AC3 Dolby Digital, 3/2 (L,C,R,l,r) + LFE ch, ~384 kbps--

Скриншоты

MI

D:Мои рипыTurbo.2013.HDRip.dexter_lex.avi
General
Complete name : D:Мои рипыTurbo.2013.HDRip.dexter_lex.avi
Format : AVI
Format/Info : Audio Video Interleave
File size : 1.46 GiB
Duration : 1h 35mn
Overall bit rate : 2 187 Kbps
Writing application : VirtualDubMod 1.5.10.3 | www.virtualdub-fr.org || (build 2550/release)
Writing library : VirtualDubMod build 2550/release
Video #0
ID : 0
Format : MPEG-4 Visual
Format profile : Advanced [email protected]
Format settings, BVOP : 1
Format settings, QPel : No
Format settings, GMC : No warppoints
Format settings, Matrix : Custom
Codec ID : XVID
Codec ID/Hint : XviD
Duration : 1h 35mn
Bit rate : 1 794 Kbps
Width : 720 pixels
Height : 304 pixels
Display aspect ratio : 2.35:1
Frame rate : 23.976 fps
Color space : YUV
Chroma subsampling : 4:2:0
Bit depth : 8 bits
Scan type : Progressive
Compression mode : Lossy
Bits/(Pixel*Frame) : 0.342
Stream size : 1.20 GiB (82%)
Writing library : XviD 73
Audio #1
ID : 1
Format : AC-3
Format/Info : Audio Coding 3
Mode extension : CM (complete main)
Codec ID : 2000
Duration : 1h 35mn
Bit rate mode : Constant
Bit rate : 384 Kbps
Channel(s) : 6 channels
Channel positions : Front: L C R, Side: L R, LFE
Sampling rate : 48.0 KHz
Bit depth : 16 bits
Compression mode : Lossy
Stream size : 263 MiB (18%)
Alignment : Split accross interleaves
Interleave, duration : 42 ms (1.00 video frame)
Interleave, preload duration : 500 ms

_________________
Подпись отключена за нарушение правил форума
Яндекс.Метрика
Рейтинг@Mail.ru