[ Сегодня на трекере фрилич! Идет свободное скачивание без начисления Download ]

Монтевидео, увидимся! / Montevideo, vidimo se! (Драган Бьелогрлич / Dragan Bjelogrlic) [2014 г., Комедия, приключения, спорт, DVDRip] VO (ViruseProject)

 

Создавать темы 30-Июл-2014 21:31

-Монтевидео, увидимся! / Montevideo, vidimo se!- Производство: Сербия, Intermedia Network
Год выпуска: 2014 г.
Жанр: Комедия, приключения, спорт
Продолжительность: 02:26:55
Мировая премьера: 15 января 2014
Перевод: Любительский (одноголосый, закадровый) [ViruseProject]-Режиссер: Драган Бьелогрлич / Dragan Bjelogrlic
В ролях: Милош Бикович, Петар Стругар, Виктор Савич, Арманд Асанте, Иван Зекич, Небойша Илич, Войин Четкович, Никола Джурицко, Срджан Тимаров, Срджан Тодорович, Драган Николич-Описание: Футбольная сага 1930 года. Была продолжена в столице Уругвая, где после тяжелого путешествия через Атлантику, первая сформированная команда, Королевства Югославии была в числе участвующих в первом чемпионате мира по футболу. Команда из небольшой балканской страны, которой обеспечивают минимальные шансы на успех, жребий попадает на главного противника чемпионата, сборной Бразилии.- -Качество видео: DVDRip
Контейнер: AVI
Видео кодек: XviD
Аудио кодек: MP3
Видео: 640x368 (1.74:1), 25 fps, XviD MPEG-4 ~1222 kbps avg, 0.21 bit/pixel
Аудио: 48 kHz, MPEG Layer 3, 2 ch, ~192.00 kbps avg
Cубтитры: отсутствуют

Media Info

General
Complete name : D:\Montevideo.vidimo.se.2014.L1.DVDRip.1400MB.avi
Format : AVI
Format/Info : Audio Video Interleave
File size : 1.46 GiB
Duration : 2h 26mn
Overall bit rate : 1 424 Kbps
Writing application : VirtualDubMod 1.5.10.2 (build 2540/release)
Writing library : VirtualDubMod build 2540/release
Video
ID : 0
Format : MPEG-4 Visual
Format profile : Advanced [email protected]
Format settings, BVOP : 1
Format settings, QPel : No
Format settings, GMC : No warppoints
Format settings, Matrix : Custom
Codec ID : XVID
Codec ID/Hint : XviD
Duration : 2h 26mn
Bit rate : 1 223 Kbps
Width : 640 pixels
Height : 368 pixels
Display aspect ratio : 1.739
Frame rate : 25.000 fps
Color space : YUV
Chroma subsampling : 4:2:0
Bit depth : 8 bits
Scan type : Progressive
Compression mode : Lossy
Bits/(Pixel*Frame) : 0.208
Stream size : 1.25 GiB (86%)
Writing library : XviD 64
Audio
ID : 1
Format : MPEG Audio
Format version : Version 1
Format profile : Layer 3
Mode : Joint stereo
Codec ID : 55
Codec ID/Hint : MP3
Duration : 2h 26mn
Bit rate mode : Constant
Bit rate : 192 Kbps
Channel(s) : 2 channels
Sampling rate : 48.0 KHz
Compression mode : Lossy
Stream size : 202 MiB (13%)
Alignment : Aligned on interleaves
Interleave, duration : 40 ms (1.00 video frame)
Interleave, preload duration : 504 ms
Language : English

Скриншоты

Яндекс.Метрика
Рейтинг@Mail.ru